Скачать через торрент музыку La Femme Nikita Её звали Никита бесплатно без регистрации torrent

Статистика раздачи
Размер:  262 MB   |    Зарегистрирован:  7 лет 4 месяца   |    .torrent скачан:  55 раз   |   
Раздают:  1  
   
загрузка...
 
Автор Сообщение

Galfimbul

avatar Galfimbul


La Femme Nikita / Её звали Никита
Жанр: Score
Год выпуска диска: 1990
Производитель диска: USA
Аудио кодек: FLAC
Тип рипа: tracks+.cue
Битрейт аудио: lossless
Продолжительность: 53:54
01. Eric Serra - Rico's Gang Suicide
02. Eric Serra - Playing On Saucepans
03. Eric Serra - As Cold As Ice
04. Eric Serra - The Sentence
05. Eric Serra - Paradise?
06. Eric Serra - Failed Escape
07. Eric Serra - Learning Time
08. Eric Serra - A Smile
09. Eric Serra - Fancy Face
10. Eric Serra - First Night Out
11. Eric Serra - NPOKMOP
12. Eric Serra - The Last Time I Kiss You
13. Eric Serra - The Free Side
14. Eric Serra - I Am On Duty!
15. Eric Serra - Josephine And The Big Dealer
16. Eric Serra - Mission In Venice
17. Eric Serra - Fall
18. Eric Serra - Let's Welcome Victor
19. Eric Serra - Last Mission
20. Eric Serra - We Will Miss You
21. Eric Serra - The Dark Side Of Time

Exact Audio Copy V0.99 prebeta 5 from 4. May 2009

EAC extraction logfile from 11. August 2009, 21:48

Eric Serra / La Femme Nikita

Used drive : Optiarc DVD RW AD-7170A Adapter: 0 ID: 0

Read mode : Secure
Utilize accurate stream : Yes
Defeat audio cache : Yes
Make use of C2 pointers : No

Read offset correction : 48
Overread into Lead-In and Lead-Out : No
Fill up missing offset samples with silence : Yes
Delete leading and trailing silent blocks : No
Null samples used in CRC calculations : Yes
Used interface : Native Win32 interface for Win NT & 2000
Gap handling : Appended to previous track

Used output format : User Defined Encoder
Selected bitrate : 320 kBit/s
Quality : High
Add ID3 tag : No
Command line compressor : C:\Program Files\Exact Audio Copy\Flac\flac.exe
Additional command line options : -8 -V -T "ARTIST=%a" -T "TITLE=%t" -T "ALBUM=%g" -T "DATE=%y" -T "TRACKNUMBER=%n" -T "GENRE=%m" -T "COMMENT=EAC FLAC -8" %s

TOC of the extracted CD

Track | Start | Length | Start sector | End sector
---------------------------------------------------------
1 | 0:00.00 | 3:12.13 | 0 | 14412
2 | 3:12.13 | 1:28.04 | 14413 | 21016
3 | 4:40.17 | 0:41.15 | 21017 | 24106
4 | 5:21.32 | 1:24.10 | 24107 | 30416
5 | 6:45.42 | 1:10.06 | 30417 | 35672
6 | 7:55.48 | 3:37.05 | 35673 | 51952
7 | 11:32.53 | 4:08.14 | 51953 | 70566
8 | 15:40.67 | 1:18.02 | 70567 | 76418
9 | 16:58.69 | 1:47.11 | 76419 | 84454
10 | 18:46.05 | 4:00.03 | 84455 | 102457
11 | 22:46.08 | 4:01.13 | 102458 | 120545
12 | 26:47.21 | 0:58.01 | 120546 | 124896
13 | 27:45.22 | 3:41.53 | 124897 | 141524
14 | 31:27.00 | 2:25.12 | 141525 | 152411
15 | 33:52.12 | 0:48.12 | 152412 | 156023
16 | 34:40.24 | 5:56.06 | 156024 | 182729
17 | 40:36.30 | 2:42.03 | 182730 | 194882
18 | 43:18.33 | 1:07.07 | 194883 | 199914
19 | 44:25.40 | 2:11.32 | 199915 | 209771
20 | 46:36.72 | 2:56.02 | 209772 | 222973
21 | 49:32.74 | 4:21.66 | 222974 | 242614

Track 1

Filename K:\SoundTrack_LA FEMME NIKITA\ 01. Eric Serra – Rico's Gang Suicide.wav

Pre-gap length 0:00:02.00

Peak level 93.8 %
Track quality 100.0 %
Test CRC D7F39B0B
Copy CRC D7F39B0B
Copy OK

Track 2

Filename K:\SoundTrack_LA FEMME NIKITA\ 02. Eric Serra – Playing On Saucepans.wav

Peak level 28.9 %
Track quality 100.0 %
Test CRC 06505D42
Copy CRC 06505D42
Copy OK

Track 3

Filename K:\SoundTrack_LA FEMME NIKITA\ 03. Eric Serra – As Cold As Ice.wav

Peak level 39.7 %
Track quality 99.7 %
Test CRC 6780DCBA
Copy CRC 6780DCBA
Copy OK

Track 4

Filename K:\SoundTrack_LA FEMME NIKITA\ 04. Eric Serra – The Sentence.wav

Peak level 51.3 %
Track quality 100.0 %
Test CRC A1A30C40
Copy CRC A1A30C40
Copy OK

Track 5

Filename K:\SoundTrack_LA FEMME NIKITA\ 05. Eric Serra – Paradise .wav

Peak level 17.7 %
Track quality 99.8 %
Test CRC 3E699B32
Copy CRC 3E699B32
Copy OK

Track 6

Filename K:\SoundTrack_LA FEMME NIKITA\ 06. Eric Serra – Failed Escape.wav

Peak level 100.0 %
Track quality 100.0 %
Test CRC 81C831B0
Copy CRC 81C831B0
Copy OK

Track 7

Filename K:\SoundTrack_LA FEMME NIKITA\ 07. Eric Serra – Learning Time.wav

Peak level 58.7 %
Track quality 100.0 %
Test CRC 7DE173B2
Copy CRC 7DE173B2
Copy OK

Track 8

Filename K:\SoundTrack_LA FEMME NIKITA\ 08. Eric Serra – A Smile.wav

Peak level 41.4 %
Track quality 99.8 %
Test CRC F830D2E7
Copy CRC F830D2E7
Copy OK

Track 9

Filename K:\SoundTrack_LA FEMME NIKITA\ 09. Eric Serra – Fancy Face.wav

Peak level 74.6 %
Track quality 100.0 %
Test CRC 3657759C
Copy CRC 3657759C
Copy OK

Track 10

Filename K:\SoundTrack_LA FEMME NIKITA\ 10. Eric Serra – First Night Out.wav

Peak level 57.4 %
Track quality 100.0 %
Test CRC 1DE3A381
Copy CRC 1DE3A381
Copy OK

Track 11

Filename K:\SoundTrack_LA FEMME NIKITA\ 11. Eric Serra – NPOKMOP.wav

Peak level 85.3 %
Track quality 100.0 %
Test CRC A38B0FE9
Copy CRC A38B0FE9
Copy OK

Track 12

Filename K:\SoundTrack_LA FEMME NIKITA\ 12. Eric Serra – The Last Time I Kiss You.wav

Peak level 17.3 %
Track quality 100.0 %
Test CRC 8370A15C
Copy CRC 8370A15C
Copy OK

Track 13

Filename K:\SoundTrack_LA FEMME NIKITA\ 13. Eric Serra – The Free Side.wav

Peak level 81.9 %
Track quality 100.0 %
Test CRC 582FF910
Copy CRC 582FF910
Copy OK

Track 14

Filename K:\SoundTrack_LA FEMME NIKITA\ 14. Eric Serra – I Am On Duty!.wav

Peak level 58.8 %
Track quality 100.0 %
Test CRC CC4361C9
Copy CRC CC4361C9
Copy OK

Track 15

Filename K:\SoundTrack_LA FEMME NIKITA\ 15. Eric Serra – Josephine And The Big Dealer.wav

Peak level 54.3 %
Track quality 99.7 %
Test CRC D87D60C5
Copy CRC D87D60C5
Copy OK

Track 16

Filename K:\SoundTrack_LA FEMME NIKITA\ 16. Eric Serra – Mission In Venice.wav

Peak level 42.0 %
Track quality 100.0 %
Test CRC B269FCD3
Copy CRC B269FCD3
Copy OK

Track 17

Filename K:\SoundTrack_LA FEMME NIKITA\ 17. Eric Serra – Fall.wav

Peak level 43.0 %
Track quality 99.9 %
Test CRC DAD6CA8D
Copy CRC DAD6CA8D
Copy OK

Track 18

Filename K:\SoundTrack_LA FEMME NIKITA\ 18. Eric Serra – Let's Welcome Victor.wav

Peak level 64.0 %
Track quality 99.8 %
Test CRC E79B3D6D
Copy CRC E79B3D6D
Copy OK

Track 19

Filename K:\SoundTrack_LA FEMME NIKITA\ 19. Eric Serra – Last Mission.wav

Peak level 29.4 %
Track quality 100.0 %
Test CRC F079200D
Copy CRC F079200D
Copy OK

Track 20

Filename K:\SoundTrack_LA FEMME NIKITA\ 20. Eric Serra – We Will Miss You.wav

Peak level 55.0 %
Track quality 100.0 %
Test CRC 6A65C2E0
Copy CRC 6A65C2E0
Copy OK

Track 21

Filename K:\SoundTrack_LA FEMME NIKITA\ 21. Eric Serra – The Dark Side Of Time.wav

Peak level 77.4 %
Track quality 100.0 %
Test CRC B771AFDC
Copy CRC B771AFDC
Copy OK

No errors occurred

End of status report

Не уходите как можно дольше с раздачи. И конечно же оставляйте коменты.

Всегда могу дораздать, пишите в личку

Трекер:  [ 07-Июл-2011 23:00 ]

  

Скачать .torrent

Размер .torrent файла 12 KB


Размер: 262 MB
Хэш (hash) релиза: 0dfcd490aa8b3edb139ea5d3b1bc42f734a459dc

Торренты, похожие на La Femme Nikita Её звали Никита скачать торрент

Форум Название Автор Размер S L Добавлен
Саундтреки к фильмам и мультфильмам (lossless) ·· (Soundtrack) La Femme Nikita / Её звали Никита (Mark Snow & VA) - 1998, FLAC (tracks+.cue), lossless Galfimbul 494702454472 MB 0 0 1292268782

22:33

13-Дек-10

Саундтреки к фильмам и мультфильмам (mp3) ·· (Score) Ее звали Никита / La femme Nikita - 2001 [MP3, 128-320] Mos 8395540680 MB 0 0 1292268126

22:22

13-Дек-10

Саундтреки к фильмам и мультфильмам (mp3) ·· (Soundtrack/TV) Её звали Никита / «La femme Nikita» (1996-2001), MP3, VBR 128-192 kbps Galfimbul 874044766834 MB 0 0 1292265178

21:32

13-Дек-10

Еще никто не оставлял запись к записи скачать торрент La Femme Nikita Её звали Никита . Будь первым!

!Обратная связь