Скачать через торрент музыку John Murphy - 28 Weeks Later - 2009, FLAC бесплатно без регистрации torrent

Статистика раздачи
Размер:  344 MB   |    Зарегистрирован:  7 лет 2 месяца   |    .torrent скачан:  58 раз   |   
Раздают:  1  
   
загрузка...
 
Автор Сообщение

AqvaGen


John Murphy - 28 Weeks Later

Жанр: Score
Год выпуска диска: 2009
Издатель: La-La Land Records
Каталожный номер: LLLCD 1097
Аудио кодек: FLAC
Тип рипа: tracks+.cue
Битрейт аудио: lossless
Продолжительность: 1:13:32
Трэклист:
01. Cottage Attack (02:34)
02. 28 Theme (03:31)
03. Welcome to Britain (02:25)
04. Firebombing London (02:35)
05. London Deserted (02:23)
06. Kiss of Death (02:52)
07. Scooter Through London (03:16)
08. Going Home (02:37)
09. Alice Is Alive! (02:23)
10. Don Abandons Alice (02:57)
11. Night Watch (01:56)
12. Go Go Go! (02:10)
13. Code Red (02:30)
14. Walk to Regents Park (02:53)
15. Outbreak (03:06)
16. Crowd Break Out (01:49)
17. The Depot (03:17)
18. Helicopter Mayhem (04:27)
19. Andy's Theme (01:53)
20. Underground (03:35)
21. Leaving England (02:37)
22. Hymn to England (02:38)
23. John Murphy Interview (13:08)
Доп. информация:
 
Exact Audio Copy V0.99 prebeta 5 from 4. May 2009

EAC extraction logfile from 27. June 2009, 19:45

John Murphy / 28 Weeks Later

Used drive : TSSTcorpCDDVDW SE-S224Q Adapter: 3 ID: 0

Read mode : SecureUtilize accurate stream : YesDefeat audio cache : YesMake use of C2 pointers : No

Read offset correction : 6Overread into Lead-In and Lead-Out : NoFill up missing offset samples with silence : YesDelete leading and trailing silent blocks : NoNull samples used in CRC calculations : YesUsed interface : Native Win32 interface for Win NT & 2000Gap handling : Appended to previous track

Used output format : User Defined EncoderSelected bitrate : 128 kBit/sQuality : HighAdd ID3 tag : NoCommand line compressor : D:\Programme\Exact Audio Copy\Flac\flac.exeAdditional command line options : -8 -V -T "artist=%a" -T "title=%t" -T "album=%g" -T "date=%y" -T "tracknumber=%n" -T "genre=%m" %s

TOC of the extracted CD

Track | Start | Length | Start sector | End sector --------------------------------------------------------- 1 | 0:00.00 | 2:35.69 | 0 | 11693 2 | 2:35.69 | 3:32.40 | 11694 | 27633 3 | 6:08.34 | 2:25.46 | 27634 | 38554 4 | 8:34.05 | 2:35.05 | 38555 | 50184 5 | 11:09.10 | 2:24.70 | 50185 | 61054 6 | 13:34.05 | 2:53.00 | 61055 | 74029 7 | 16:27.05 | 3:18.37 | 74030 | 88916 8 | 19:45.42 | 2:38.37 | 88917 | 100803 9 | 22:24.04 | 2:23.06 | 100804 | 111534 10 | 24:47.10 | 2:59.27 | 111535 | 124986 11 | 27:46.37 | 1:56.31 | 124987 | 133717 12 | 29:42.68 | 2:10.56 | 133718 | 143523 13 | 31:53.49 | 2:29.63 | 143524 | 154761 14 | 34:23.37 | 2:54.21 | 154762 | 167832 15 | 37:17.58 | 3:06.58 | 167833 | 181840 16 | 40:24.41 | 1:48.71 | 181841 | 190011 17 | 42:13.37 | 3:18.50 | 190012 | 204911 18 | 45:32.12 | 4:29.07 | 204912 | 225093 19 | 50:01.19 | 1:53.18 | 225094 | 233586 20 | 51:54.37 | 3:36.29 | 233587 | 249815 21 | 55:30.66 | 2:36.62 | 249816 | 261577 22 | 58:07.53 | 2:40.42 | 261578 | 273619 23 | 60:48.20 | 13:10.74 | 273620 | 332943

Track 1

Filename D:\Rips\01 - Cottage Attack.wav

Pre-gap length 0:00:02.00

Peak level 100.0 % Track quality 100.0 % Test CRC F7DD3526 Copy CRC F7DD3526 Track not present in AccurateRip database Copy OK

Track 2

Filename D:\Rips\02 - 28 Theme.wav

Pre-gap length 0:00:00.13

Peak level 97.4 % Track quality 99.9 % Test CRC C2C9793C Copy CRC C2C9793C Track not present in AccurateRip database Copy OK

Track 3

Filename D:\Rips\03 - Welcome To Britain.wav

Pre-gap length 0:00:00.10

Peak level 95.1 % Track quality 100.0 % Test CRC 7DBC2870 Copy CRC 7DBC2870 Track not present in AccurateRip database Copy OK

Track 4

Filename D:\Rips\04 - Firebombing London.wav

Pre-gap length 0:00:00.03

Peak level 98.0 % Track quality 99.9 % Test CRC 76B672D7 Copy CRC 76B672D7 Track not present in AccurateRip database Copy OK

Track 5

Filename D:\Rips\05 - London Deserted.wav

Pre-gap length 0:00:00.11

Peak level 99.1 % Track quality 100.0 % Test CRC 47A8A21F Copy CRC 47A8A21F Track not present in AccurateRip database Copy OK

Track 6

Filename D:\Rips\06 - Kiss Of Death.wav

Pre-gap length 0:00:00.01

Peak level 96.7 % Track quality 99.9 % Test CRC 9334734B Copy CRC 9334734B Track not present in AccurateRip database Copy OK

Track 7

Filename D:\Rips\07 - Scooter Through London.wav

Pre-gap length 0:00:00.10

Peak level 96.9 % Track quality 100.0 % Test CRC 3D585EFA Copy CRC 3D585EFA Track not present in AccurateRip database Copy OK

Track 8

Filename D:\Rips\08 - Going Home.wav

Peak level 96.9 % Track quality 100.0 % Test CRC D06508AD Copy CRC D06508AD Track not present in AccurateRip database Copy OK

Track 9

Filename D:\Rips\09 - Alice Is Alive!.wav

Pre-gap length 0:00:00.03

Peak level 99.0 % Track quality 99.6 % Test CRC 90A8C2AA Copy CRC 90A8C2AA Track not present in AccurateRip database Copy OK

Track 10

Filename D:\Rips\10 - Don Abandons Alice.wav

Pre-gap length 0:00:00.07

Peak level 100.0 % Track quality 100.0 % Test CRC E9627CE2 Copy CRC E9627CE2 Track not present in AccurateRip database Copy OK

Track 11

Filename D:\Rips\11 - Night Watch.wav

Pre-gap length 0:00:00.07

Peak level 99.1 % Track quality 100.0 % Test CRC FF90FAA7 Copy CRC FF90FAA7 Track not present in AccurateRip database Copy OK

Track 12

Filename D:\Rips\12 - Go Go Go.wav

Pre-gap length 0:00:00.09

Peak level 100.0 % Track quality 100.0 % Test CRC 2DFAB4C4 Copy CRC 2DFAB4C4 Track not present in AccurateRip database Copy OK

Track 13

Filename D:\Rips\13 - Code Red.wav

Peak level 98.2 % Track quality 100.0 % Test CRC 04B9ECF3 Copy CRC 04B9ECF3 Track not present in AccurateRip database Copy OK

Track 14

Filename D:\Rips\14 - Walk To Regents Park.wav

Pre-gap length 0:00:00.02

Peak level 99.9 % Track quality 100.0 % Test CRC 6D9E2FD8 Copy CRC 6D9E2FD8 Track not present in AccurateRip database Copy OK

Track 15

Filename D:\Rips\15 - Outbreak.wav

Pre-gap length 0:00:00.06

Peak level 99.1 % Track quality 100.0 % Test CRC AF917E7F Copy CRC AF917E7F Track not present in AccurateRip database Copy OK

Track 16

Filename D:\Rips\16 - Crowd Break Out.wav

Pre-gap length 0:00:00.01

Peak level 97.3 % Track quality 100.0 % Test CRC 9B5A9C9A Copy CRC 9B5A9C9A Track not present in AccurateRip database Copy OK

Track 17

Filename D:\Rips\17 - The Depot.wav

Peak level 98.7 % Track quality 100.0 % Test CRC 759E00FF Copy CRC 759E00FF Track not present in AccurateRip database Copy OK

Track 18

Filename D:\Rips\18 - Helicopter Mayhem.wav

Peak level 98.5 % Track quality 100.0 % Test CRC 6284CD25 Copy CRC 6284CD25 Track not present in AccurateRip database Copy OK

Track 19

Filename D:\Rips\19 - Andy's Theme.wav

Pre-gap length 0:00:00.08

Peak level 97.7 % Track quality 99.9 % Test CRC 7E520A4B Copy CRC 7E520A4B Track not present in AccurateRip database Copy OK

Track 20

Filename D:\Rips\20 - Underground.wav

Pre-gap length 0:00:00.04

Peak level 100.0 % Track quality 100.0 % Test CRC 046CAED5 Copy CRC 046CAED5 Track not present in AccurateRip database Copy OK

Track 21

Filename D:\Rips\21 - Leaving England.wav

Pre-gap length 0:00:00.05

Peak level 99.0 % Track quality 100.0 % Test CRC ACD9F92C Copy CRC ACD9F92C Track not present in AccurateRip database Copy OK

Track 22

Filename D:\Rips\22 - Hym To England.wav

Peak level 98.7 % Track quality 100.0 % Test CRC 05A1D400 Copy CRC 05A1D400 Track not present in AccurateRip database Copy OK

Track 23

Filename D:\Rips\23 - John Murphy Interview.wav

Pre-gap length 0:00:02.05

Peak level 97.9 % Track quality 99.9 % Test CRC 87530B7B Copy CRC 87530B7B Track not present in AccurateRip database Copy OK

None of the tracks are present in the AccurateRip database

No errors occurred

End of status report
Улучшенная и дополненная версия шедевра Джона Мерфи "28 Days Later".

Трекер:  [ 09-Фев-2011 15:30 ]

  

Скачать .torrent

Размер .torrent файла 16 KB


Размер: 344 MB
Хэш (hash) релиза: f2b46d55d2bc7bebc9102cd661b1b4b9a740f494

bot

Топик был перенесен в форум Саундтреки к фильмам и мультфильмам (lossless)

Перенес AqvaGen

Хотите добавить комментарий к записи скачать торрент John Murphy - 28 Weeks Later - 2009, FLAC

!Обратная связь