Скачать через торрент музыку Ханна Монтана Навсегда Hannah Montana Forever - 2010, FLAC бесплатно без регистрации torrent

Статистика раздачи
Размер:  272 MB   |    Зарегистрирован:  7 лет 7 месяцев   |    .torrent скачан:  95 раз   |   
Раздают:  1  
   
загрузка...
 
Автор Сообщение

AqvaGen


Ханна Монтана Навсегда / Hannah Montana Forever

Жанр: Soundtrack
Год выпуска диска / фильма: 2010
Страна-производитель диска: США
Издатель (лейбл): Walt Disney

Аудио кодек: FLAC (*.flac)
Тип рипа: tracks+.cue
Битрейт аудио: lossless
Продолжительность: 00:36:34

Источник: CD
Наличие сканов в содержимом раздачи: нет
Треклист:
01. Gonna Get This (feat. Iyaz) (3:18)
02. Que Sera (3:00)
03. Ordinary Girl (2:58)
04. Kiss It Goodbye (2:45)
05. I'll Always Remember You (3:53)
06. Need a Little Love (feat. Sheryl Crow) (3:55)
07. Are You Ready (3:17)
08. Love That Lets Go (feat. Billy Ray Cyrus) (3:08)
09. I'm Still Good (3:18)
10. Been Here All Along (4:02)
11. Barefoot Cinderella (2:56)
 
Exact Audio Copy V0.99 prebeta 5 from 4. May 2009

EAC extraction logfile from 1. November 2010, 22:53

Hannah Montana / Hannah Montana Forever

Used drive : Optiarc BD ROM BC-5500S4 Adapter: 0 ID: 1

Read mode : SecureUtilize accurate stream : YesDefeat audio cache : YesMake use of C2 pointers : No

Read offset correction : 48Overread into Lead-In and Lead-Out : NoFill up missing offset samples with silence : YesDelete leading and trailing silent blocks : NoNull samples used in CRC calculations : YesUsed interface : Native Win32 interface for Win NT & 2000Gap handling : Appended to previous track

Used output format : User Defined EncoderSelected bitrate : 128 kBit/sQuality : HighAdd ID3 tag : NoCommand line compressor : C:\Program Files (x86)\Exact Audio Copy\FLAC\FLAC.EXEAdditional command line options : -8 -T "artist=%a" -T "title=%t" -T "album=%g" -T "date=%y" -T "tracknumber=%n" -T "genre=%m" %s

TOC of the extracted CD

Track | Start | Length | Start sector | End sector --------------------------------------------------------- 1 | 0:00.00 | 3:18.00 | 0 | 14849 2 | 3:18.00 | 3:00.02 | 14850 | 28351 3 | 6:18.02 | 2:58.45 | 28352 | 41746 4 | 9:16.47 | 2:45.08 | 41747 | 54129 5 | 12:01.55 | 3:53.35 | 54130 | 71639 6 | 15:55.15 | 3:55.60 | 71640 | 89324 7 | 19:51.00 | 3:17.57 | 89325 | 104156 8 | 23:08.57 | 3:08.00 | 104157 | 118256 9 | 26:16.57 | 3:18.00 | 118257 | 133106 10 | 29:34.57 | 4:02.38 | 133107 | 151294 11 | 33:37.20 | 2:56.65 | 151295 | 164559

Track 1

Filename C:\Users\Rion\Desktop\EAC Music\Hannah Montana - Hannah Montana Forever (2010) [FLAC]\01 - Gonna Get This (Feat. Iyaz).wav

Pre-gap length 0:00:02.00

Peak level 98.8 % Track quality 100.0 % Test CRC C9E9E32A Copy CRC C9E9E32A Track not present in AccurateRip database Copy OK

Track 2

Filename C:\Users\Rion\Desktop\EAC Music\Hannah Montana - Hannah Montana Forever (2010) [FLAC]\02 - Que Sera.wav

Pre-gap length 0:00:01.13

Peak level 98.8 % Track quality 100.0 % Test CRC C3803474 Copy CRC C3803474 Track not present in AccurateRip database Copy OK

Track 3

Filename C:\Users\Rion\Desktop\EAC Music\Hannah Montana - Hannah Montana Forever (2010) [FLAC]\03 - Ordinary Girl.wav

Pre-gap length 0:00:00.09

Peak level 98.8 % Track quality 100.0 % Test CRC A01297EB Copy CRC A01297EB Track not present in AccurateRip database Copy OK

Track 4

Filename C:\Users\Rion\Desktop\EAC Music\Hannah Montana - Hannah Montana Forever (2010) [FLAC]\04 - Kiss It Goodbye.wav

Pre-gap length 0:00:01.09

Peak level 97.6 % Track quality 100.0 % Test CRC F6A27109 Copy CRC F6A27109 Track not present in AccurateRip database Copy OK

Track 5

Filename C:\Users\Rion\Desktop\EAC Music\Hannah Montana - Hannah Montana Forever (2010) [FLAC]\05 - I'll Always Remember You.wav

Peak level 98.8 % Track quality 100.0 % Test CRC ED2A362A Copy CRC ED2A362A Track not present in AccurateRip database Copy OK

Track 6

Filename C:\Users\Rion\Desktop\EAC Music\Hannah Montana - Hannah Montana Forever (2010) [FLAC]\06 - Need A Little Love (Feat. Sheryl Crow).wav

Pre-gap length 0:00:00.13

Peak level 98.8 % Track quality 100.0 % Test CRC 6FAEBFC2 Copy CRC 6FAEBFC2 Track not present in AccurateRip database Copy OK

Track 7

Filename C:\Users\Rion\Desktop\EAC Music\Hannah Montana - Hannah Montana Forever (2010) [FLAC]\07 - Are You Ready.wav

Pre-gap length 0:00:00.60

Peak level 98.8 % Track quality 100.0 % Test CRC 81CF0599 Copy CRC 81CF0599 Track not present in AccurateRip database Copy OK

Track 8

Filename C:\Users\Rion\Desktop\EAC Music\Hannah Montana - Hannah Montana Forever (2010) [FLAC]\08 - Love That Lets Go (Feat. Billy Ray Cyrus).wav

Pre-gap length 0:00:01.56

Peak level 98.8 % Track quality 100.0 % Test CRC 83CAE769 Copy CRC 83CAE769 Track not present in AccurateRip database Copy OK

Track 9

Filename C:\Users\Rion\Desktop\EAC Music\Hannah Montana - Hannah Montana Forever (2010) [FLAC]\09 - I'm Still Good.wav

Pre-gap length 0:00:01.02

Peak level 98.8 % Track quality 100.0 % Test CRC 891E8512 Copy CRC 891E8512 Track not present in AccurateRip database Copy OK

Track 10

Filename C:\Users\Rion\Desktop\EAC Music\Hannah Montana - Hannah Montana Forever (2010) [FLAC]\10 - Been Here All Along.wav

Peak level 99.8 % Track quality 100.0 % Test CRC 626EBA4B Copy CRC 626EBA4B Track not present in AccurateRip database Copy OK

Track 11

Filename C:\Users\Rion\Desktop\EAC Music\Hannah Montana - Hannah Montana Forever (2010) [FLAC]\11 - Barefoot Cinderella.wav

Pre-gap length 0:00:01.00

Peak level 98.8 % Track quality 100.0 % Test CRC D5DA3625 Copy CRC D5DA3625 Track not present in AccurateRip database Copy OK

None of the tracks are present in the AccurateRip database

No errors occurred

End of status report
 
REM GENRE PopREM DATE 2010REM DISCID 9308920BREM COMMENT "ExactAudioCopy v0.99pb5"PERFORMER "Hannah Montana"TITLE "Hannah Montana Forever"FILE "01 - Gonna Get This (Feat. Iyaz).wav" WAVE TRACK 01 AUDIO TITLE "Gonna Get This (Feat. Iyaz)" PERFORMER "Hannah Montana" INDEX 01 00:00:00 TRACK 02 AUDIO TITLE "Que Sera" PERFORMER "Hannah Montana" INDEX 00 03:16:65FILE "02 - Que Sera.wav" WAVE INDEX 01 00:00:00 TRACK 03 AUDIO TITLE "Ordinary Girl" PERFORMER "Hannah Montana" INDEX 00 02:59:70FILE "03 - Ordinary Girl.wav" WAVE INDEX 01 00:00:00 TRACK 04 AUDIO TITLE "Kiss It Goodbye" PERFORMER "Hannah Montana" INDEX 00 02:57:38FILE "04 - Kiss It Goodbye.wav" WAVE INDEX 01 00:00:00FILE "05 - I'll Always Remember You.wav" WAVE TRACK 05 AUDIO TITLE "I'll Always Remember You" PERFORMER "Hannah Montana" INDEX 01 00:00:00 TRACK 06 AUDIO TITLE "Need A Little Love (Feat. Sheryl Crow)" PERFORMER "Hannah Montana" INDEX 00 03:53:25FILE "06 - Need A Little Love (Feat. Sheryl Crow).wav" WAVE INDEX 01 00:00:00 TRACK 07 AUDIO TITLE "Are You Ready" PERFORMER "Hannah Montana" INDEX 00 03:55:15FILE "07 - Are You Ready.wav" WAVE INDEX 01 00:00:00 TRACK 08 AUDIO TITLE "Love That Lets Go (Feat. Billy Ray Cyrus)" PERFORMER "Hannah Montana" INDEX 00 03:16:15FILE "08 - Love That Lets Go (Feat. Billy Ray Cyrus).wav" WAVE INDEX 01 00:00:00 TRACK 09 AUDIO TITLE "I'm Still Good" PERFORMER "Hannah Montana" INDEX 00 03:06:73FILE "09 - I'm Still Good.wav" WAVE INDEX 01 00:00:00FILE "10 - Been Here All Along.wav" WAVE TRACK 10 AUDIO TITLE "Been Here All Along" PERFORMER "Hannah Montana" INDEX 01 00:00:00 TRACK 11 AUDIO TITLE "Barefoot Cinderella" PERFORMER "Hannah Montana" INDEX 00 04:01:38FILE "11 - Barefoot Cinderella.wav" WAVE INDEX 01 00:00:00


Трекер:  [ 19-Дек-2010 15:34 ]

  

Скачать .torrent

Размер .torrent файла 12 KB


Размер: 272 MB
Хэш (hash) релиза: df3b31aa86733eb3cb4def78ff7656803298e4a1

bot

Топик был перенесен в форум Саундтреки к фильмам и мультфильмам (lossless)

Перенес AqvaGen

Хотите добавить комментарий к записи скачать торрент Ханна Монтана Навсегда Hannah Montana Forever - 2010, FLAC

!Обратная связь