Скачать через торрент музыку Blues Brothers 2000 | Братья Блюз 2000 - 1998, FLAC бесплатно без регистрации torrent

Статистика раздачи
Размер:  431 MB   |    Зарегистрирован:  7 лет 1 месяц   |    .torrent скачан:  173 раза   |   
Раздают:  1  
   
загрузка...
 
Автор Сообщение

Galfimbul

avatar Galfimbul


Blues Brothers 2000 | Братья Блюз 2000


Жанр: Soundtrack
Год выпуска диска: 1998
Производитель диска: USA
Аудио кодек: FLAC
Тип рипа: tracks+.cue
Битрейт аудио: lossless
Продолжительность: 1:01:15
01. The Paul Butterfield Blues Band - Born in Chicago
02. Matt 'Guitar' Murphy - The Blues Don't Bother Me
03. John Popper - Harmonica Musings
04. Dan Aykroyd, Lonnie Brooks, Junior Wells and The Blues Brothers Band - Cheaper to Keep Her
05. The Blues Brothers Band - Perry Mason Theme
06. John Goodman, Dan Aykroyd and The Blues Brothers Band - Looking for a Fox
07. The Blues Brothers Band - Can't Turn You Loose
08. Aretha Franklin and The Blues Brothers Band - R-E-S-P-E-C-T
09. Eddie Floyd, Wilson Pickett, Jonny Lang and The Blues Brothers Band - 634-5789
10. Blues Traveler - Maybe I'm Wrong
11. Dan Aykroyd, John Goodman and The Blues Brothers Band - Riders in the Sky (A Cowboy Legend)
12. Taj Mahal, Sam Moore, Joe Morton, Sharon Riley and The Faith Chorale - John the Revelator
13. The Carl LaFong Trio - Let There Be Drums
14. Dr John and The Blues Brothers Band - Season of the Witch
15. Joe Morton, Dan Aykroyd, John Goodman, Paul Shaffer, Erykah Badu and The Blue... - Funky Nassau
16. The Louisiana Gator Boys - How Blue Can You Get
17. Joe Morton, Dan Aykroyd, John Goodman, J Evan Bonifant and The Blues Brothers... - Turn On Your Love Light
18. The Louisiana Gator Boys and The Blues Brothers Band - New Orleans

Exact Audio Copy V0.99 prebeta 5 from 4. May 2009

EAC extraction logfile from 16. November 2009, 21:15

Various Artists / Blues Brothers 2000

Used drive : Optiarc DVD RW AD-7170A Adapter: 0 ID: 0

Read mode : Secure
Utilize accurate stream : Yes
Defeat audio cache : Yes
Make use of C2 pointers : No

Read offset correction : 48
Overread into Lead-In and Lead-Out : No
Fill up missing offset samples with silence : Yes
Delete leading and trailing silent blocks : No
Null samples used in CRC calculations : Yes
Used interface : Native Win32 interface for Win NT & 2000
Gap handling : Appended to previous track

Used output format : User Defined Encoder
Selected bitrate : 320 kBit/s
Quality : High
Add ID3 tag : No
Command line compressor : C:\Program Files\Exact Audio Copy\Flac\flac.exe
Additional command line options : -8 -V -T "ARTIST=%a" -T "TITLE=%t" -T "ALBUM=%g" -T "DATE=%y" -T "TRACKNUMBER=%n" -T "GENRE=%m" -T "COMMENT=EAC FLAC -8" %s

TOC of the extracted CD

Track | Start | Length | Start sector | End sector
---------------------------------------------------------
1 | 0:00.00 | 3:05.17 | 0 | 13891
2 | 3:05.17 | 3:36.50 | 13892 | 30141
3 | 6:41.67 | 0:32.55 | 30142 | 32596
4 | 7:14.47 | 3:17.43 | 32597 | 47414
5 | 10:32.15 | 2:30.15 | 47415 | 58679
6 | 13:02.30 | 2:46.47 | 58680 | 71176
7 | 15:49.02 | 2:24.65 | 71177 | 82041
8 | 18:13.67 | 3:00.10 | 82042 | 95551
9 | 21:14.02 | 3:29.45 | 95552 | 111271
10 | 24:43.47 | 5:46.18 | 111272 | 137239
11 | 30:29.65 | 3:10.57 | 137240 | 151546
12 | 33:40.47 | 3:53.50 | 151547 | 169071
13 | 37:34.22 | 1:15.00 | 169072 | 174696
14 | 38:49.22 | 5:09.45 | 174697 | 197916
15 | 43:58.67 | 4:13.65 | 197917 | 216956
16 | 48:12.57 | 5:30.38 | 216957 | 241744
17 | 53:43.20 | 3:30.12 | 241745 | 257506
18 | 57:13.32 | 4:01.48 | 257507 | 275629

Track 1

Filename E:\DownLoad\SoundTrack_Blues Brothers 2000\01. The Paul Butterfield Blues Band – Born in Chicago.wav

Pre-gap length 0:00:02.00

Peak level 99.8 %
Track quality 100.0 %
Test CRC 0C39831B
Copy CRC 0C39831B
Copy OK

Track 2

Filename E:\DownLoad\SoundTrack_Blues Brothers 2000\02. Matt 'Guitar' Murphy – The Blues Don't Bother Me.wav

Peak level 99.8 %
Track quality 100.0 %
Test CRC 2ED2D6CA
Copy CRC 2ED2D6CA
Copy OK

Track 3

Filename E:\DownLoad\SoundTrack_Blues Brothers 2000\03. John Popper – Harmonica Musings.wav

Peak level 99.8 %
Track quality 100.0 %
Test CRC DA70C038
Copy CRC DA70C038
Copy OK

Track 4

Filename E:\DownLoad\SoundTrack_Blues Brothers 2000\04. Dan Aykroyd, Lonnie Brooks, Junior Wells and The Blues Brothers Band – Cheaper to Keep Her.wav

Peak level 99.8 %
Track quality 99.9 %
Test CRC 6699A61A
Copy CRC 6699A61A
Copy OK

Track 5

Filename E:\DownLoad\SoundTrack_Blues Brothers 2000\05. The Blues Brothers Band – Perry Mason Theme.wav

Peak level 99.8 %
Track quality 100.0 %
Test CRC 15F36C2A
Copy CRC 15F36C2A
Copy OK

Track 6

Filename E:\DownLoad\SoundTrack_Blues Brothers 2000\06. John Goodman, Dan Aykroyd and The Blues Brothers Band – Looking for a Fox.wav

Peak level 99.8 %
Track quality 100.0 %
Test CRC D81A1BCB
Copy CRC D81A1BCB
Copy OK

Track 7

Filename E:\DownLoad\SoundTrack_Blues Brothers 2000\07. The Blues Brothers Band – Can't Turn You Loose.wav

Peak level 99.8 %
Track quality 100.0 %
Test CRC 1F292B5A
Copy CRC 1F292B5A
Copy OK

Track 8

Filename E:\DownLoad\SoundTrack_Blues Brothers 2000\08. Aretha Franklin and The Blues Brothers Band – R-E-S-P-E-C-T.wav

Peak level 99.8 %
Track quality 100.0 %
Test CRC 762564CF
Copy CRC 762564CF
Copy OK

Track 9

Filename E:\DownLoad\SoundTrack_Blues Brothers 2000\09. Eddie Floyd, Wilson Pickett, Jonny Lang and The Blues Brothers Band – 634-5789.wav

Peak level 99.8 %
Track quality 100.0 %
Test CRC EA17BED4
Copy CRC EA17BED4
Copy OK

Track 10

Filename E:\DownLoad\SoundTrack_Blues Brothers 2000\10. Blues Traveler – Maybe I'm Wrong.wav

Peak level 99.8 %
Track quality 99.9 %
Test CRC 8BCACF46
Copy CRC 8BCACF46
Copy OK

Track 11

Filename E:\DownLoad\SoundTrack_Blues Brothers 2000\11. Dan Aykroyd, John Goodman and The Blues Brothers Band – Riders in the Sky (A Cowboy Legend).wav

Peak level 99.8 %
Track quality 100.0 %
Test CRC A8E799A5
Copy CRC A8E799A5
Copy OK

Track 12

Filename E:\DownLoad\SoundTrack_Blues Brothers 2000\12. Taj Mahal, Sam Moore, Joe Morton, Sharon Riley and The Faith Chorale – John the Revelator.wav

Peak level 99.8 %
Track quality 100.0 %
Test CRC 65231685
Copy CRC 65231685
Copy OK

Track 13

Filename E:\DownLoad\SoundTrack_Blues Brothers 2000\13. The Carl LaFong Trio – Let There Be Drums.wav

Peak level 99.8 %
Track quality 100.0 %
Test CRC 92623BB6
Copy CRC 92623BB6
Copy OK

Track 14

Filename E:\DownLoad\SoundTrack_Blues Brothers 2000\14. Dr John and The Blues Brothers Band – Season of the Witch.wav

Peak level 99.8 %
Track quality 100.0 %
Test CRC DF51B6F5
Copy CRC DF51B6F5
Copy OK

Track 15

Filename E:\DownLoad\SoundTrack_Blues Brothers 2000\15. Joe Morton, Dan Aykroyd, John Goodman, Paul Shaffer, Erykah Badu and The Blues Brothers Band – Funky Nassau.wav

Peak level 99.8 %
Track quality 100.0 %
Test CRC 41E68E93
Copy CRC 41E68E93
Copy OK

Track 16

Filename E:\DownLoad\SoundTrack_Blues Brothers 2000\16. The Louisiana Gator Boys – How Blue Can You Get.wav

Peak level 99.8 %
Track quality 100.0 %
Test CRC 1BA14E3C
Copy CRC 1BA14E3C
Copy OK

Track 17

Filename E:\DownLoad\SoundTrack_Blues Brothers 2000\17. Joe Morton, Dan Aykroyd, John Goodman, J Evan Bonifant and The Blues Brothers Band – Turn On Your Love Light.wav

Peak level 99.8 %
Track quality 99.9 %
Test CRC FBE0B1D2
Copy CRC FBE0B1D2
Copy OK

Track 18

Filename E:\DownLoad\SoundTrack_Blues Brothers 2000\18. The Louisiana Gator Boys and The Blues Brothers Band – New Orleans.wav

Peak level 99.8 %
Track quality 100.0 %
Test CRC F499ED5F
Copy CRC F499ED5F
Copy OK

No errors occurred

End of status report


Трекер:  [ 07-Июл-2011 22:59 ]

  

Скачать .torrent

Размер .torrent файла 19 KB


Размер: 431 MB
Хэш (hash) релиза: 4369fb033329e23bd84bcd8a3ec40f79810947ec

Еще никто не оставлял запись к записи скачать торрент Blues Brothers 2000 | Братья Блюз 2000 - 1998, FLAC . Будь первым!

!Обратная связь