Скачать через торрент музыку The Beach Пляж бесплатно без регистрации torrent

Статистика раздачи
Размер:  254 MB   |    Зарегистрирован:  6 лет 9 месяцев   |    .torrent скачан:  49 раз   |   
Раздают:  1  
   
загрузка...
 
Автор Сообщение

Galfimbul

avatar Galfimbul


The Beach / Пляж (Angelo Badalamenti)

Жанр: Score
Год выпуска диска: 2000
Производитель диска: USA
Аудио кодек: FLAC
Тип рипа: tracks+.cue
Битрейт аудио: lossless
Продолжительность: 44:00

Трэклист:

01. Bizarre City
02. The Beach Theme (Swim To Island)
03. Vision Of Fantasy
04. Mournful Myth
05. Starnight
06. Killing Fields
07. Blue Sex
08. The Beach Theme (Mythical Waters)
09. Grassmark
10. Daffy's Done
11. Mystery Of Christo
12. Pure Victims
13. Pursuit Of A Shark
14. Waterfall Cascade
15. Dreamburst


Дополнительная информация: Невероятно красивая музыка, впрочем как и сам фильм.
Exact Audio Copy V0.99 prebeta 5 from 4. May 2009

EAC extraction logfile from 20. August 2009, 20:09

Angelo Badalamenti / The Beach

Used drive : Optiarc DVD RW AD-7170A Adapter: 0 ID: 0

Read mode : Secure
Utilize accurate stream : Yes
Defeat audio cache : Yes
Make use of C2 pointers : No

Read offset correction : 48
Overread into Lead-In and Lead-Out : No
Fill up missing offset samples with silence : Yes
Delete leading and trailing silent blocks : No
Null samples used in CRC calculations : Yes
Used interface : Native Win32 interface for Win NT & 2000
Gap handling : Appended to previous track

Used output format : User Defined Encoder
Selected bitrate : 320 kBit/s
Quality : High
Add ID3 tag : No
Command line compressor : C:\Program Files\Exact Audio Copy\Flac\flac.exe
Additional command line options : -8 -V -T "ARTIST=%a" -T "TITLE=%t" -T "ALBUM=%g" -T "DATE=%y" -T "TRACKNUMBER=%n" -T "GENRE=%m" -T "COMMENT=EAC FLAC -8" %s

TOC of the extracted CD

Track | Start | Length | Start sector | End sector
---------------------------------------------------------
1 | 0:00.00 | 4:06.07 | 0 | 18456
2 | 4:06.07 | 3:23.32 | 18457 | 33713
3 | 7:29.39 | 4:03.24 | 33714 | 51962
4 | 11:32.63 | 2:11.17 | 51963 | 61804
5 | 13:44.05 | 1:45.56 | 61805 | 69735
6 | 15:29.61 | 5:41.70 | 69736 | 95380
7 | 21:11.56 | 2:38.00 | 95381 | 107230
8 | 23:49.56 | 1:59.26 | 107231 | 116181
9 | 25:49.07 | 2:44.46 | 116182 | 128527
10 | 28:33.53 | 2:14.03 | 128528 | 138580
11 | 30:47.56 | 1:52.43 | 138581 | 147023
12 | 32:40.24 | 2:43.49 | 147024 | 159297
13 | 35:23.73 | 1:52.50 | 159298 | 167747
14 | 37:16.48 | 3:57.36 | 167748 | 185558
15 | 41:14.09 | 2:46.50 | 185559 | 198058

Track 1

Filename C:\SoundTrack_The Beach\ 01. Angelo Badalamenti – Bizarre City.wav

Pre-gap length 0:00:02.00

Peak level 98.8 %
Track quality 100.0 %
Test CRC F7574606
Copy CRC F7574606
Copy OK

Track 2

Filename C:\SoundTrack_The Beach\ 02. Angelo Badalamenti – The Beach Theme (Swim To Island).wav

Peak level 95.4 %
Track quality 100.0 %
Test CRC BC451811
Copy CRC 325FD7C1
Copy OK

Track 3

Filename C:\SoundTrack_The Beach\ 03. Angelo Badalamenti – Vision Of Fantasy.wav

Peak level 95.8 %
Track quality 100.0 %
Test CRC 2512BBFB
Copy CRC 2512BBFB
Copy OK

Track 4

Filename C:\SoundTrack_The Beach\ 04. Angelo Badalamenti – Mournful Myth.wav

Peak level 87.1 %
Track quality 100.0 %
Test CRC E45F7C75
Copy CRC E45F7C75
Copy OK

Track 5

Filename C:\SoundTrack_The Beach\ 05. Angelo Badalamenti – Starnight.wav

Peak level 95.1 %
Track quality 100.0 %
Test CRC A14D1EEF
Copy CRC A14D1EEF
Copy OK

Track 6

Filename C:\SoundTrack_The Beach\ 06. Angelo Badalamenti – Killing Fields.wav

Peak level 96.6 %
Track quality 100.0 %
Test CRC FA6905B6
Copy CRC FA6905B6
Copy OK

Track 7

Filename C:\SoundTrack_The Beach\ 07. Angelo Badalamenti – Blue Sex.wav

Peak level 91.1 %
Track quality 100.0 %
Test CRC 5A01E81A
Copy CRC 5A01E81A
Copy OK

Track 8

Filename C:\SoundTrack_The Beach\ 08. Angelo Badalamenti – The Beach Theme (Mythical Waters).wav

Peak level 92.6 %
Track quality 100.0 %
Test CRC E9276570
Copy CRC E9276570
Copy OK

Track 9

Filename C:\SoundTrack_The Beach\ 09. Angelo Badalamenti – Grassmark.wav

Peak level 92.9 %
Track quality 100.0 %
Test CRC 4E8246B0
Copy CRC 4E8246B0
Copy OK

Track 10

Filename C:\SoundTrack_The Beach\ 10. Angelo Badalamenti – Daffy's Done.wav

Peak level 98.0 %
Track quality 100.0 %
Test CRC 88D0ACCB
Copy CRC 88D0ACCB
Copy OK

Track 11

Filename C:\SoundTrack_The Beach\ 11. Angelo Badalamenti – Mystery Of Christo.wav

Peak level 85.2 %
Track quality 99.9 %
Test CRC DF15AAF9
Copy CRC DF15AAF9
Copy OK

Track 12

Filename C:\SoundTrack_The Beach\ 12. Angelo Badalamenti – Pure Victims.wav

Peak level 94.1 %
Track quality 100.0 %
Test CRC 173FB7EB
Copy CRC 173FB7EB
Copy OK

Track 13

Filename C:\SoundTrack_The Beach\ 13. Angelo Badalamenti – Pursuit Of A Shark.wav

Peak level 95.4 %
Track quality 100.0 %
Test CRC C0C63245
Copy CRC C0C63245
Copy OK

Track 14

Filename C:\SoundTrack_The Beach\ 14. Angelo Badalamenti – Waterfall Cascade.wav

Peak level 91.7 %
Track quality 100.0 %
Test CRC BAE8760B
Copy CRC BAE8760B
Copy OK

Track 15

Filename C:\SoundTrack_The Beach\ 15. Angelo Badalamenti – Dreamburst.wav

Peak level 93.8 %
Track quality 100.0 %
Test CRC 4224033C
Copy CRC 4224033C
Copy OK

No errors occurred

End of status report


Трекер:  [ 07-Июл-2011 22:59 ]

  

Скачать .torrent

Размер .torrent файла 21 KB


Размер: 254 MB
Хэш (hash) релиза: 0be0471b27c5a9c491ebe4696426c112278fd0b2

Торренты, похожие на The Beach Пляж скачать торрент

Форум Название Автор Размер S L Добавлен
Саундтреки к фильмам и мультфильмам (lossless) ·· (Soundtrack) Пляж / The Beach (Motion Picture Soundtrack) - 2000, APE (image+.cue), lossless Galfimbul 477815006456 MB 0 0 1292268520

22:28

13-Дек-10

Саундтреки к фильмам и мультфильмам (mp3) ·· (Soundtrack) Пляж / The Beach - 2000, MP3, 320 kbps Phoenix 185060561176 MB 0 0 1292265138

21:32

13-Дек-10

Еще никто не оставлял запись к записи скачать торрент The Beach Пляж . Будь первым!

!Обратная связь