Скачать через торрент музыку Apocalypse Now 2 CD Апокалипсис сегодня бесплатно без регистрации torrent

Статистика раздачи
Размер:  478 MB   |    Зарегистрирован:  7 лет 10 месяцев   |    .torrent скачан:  749 раз   |   
Раздают:  1  
   
загрузка...
 
Автор Сообщение

AqvaGen


Apocalypse Now / Апокалипсис сегодня
Жанр: Score/Soundtrack
Год выпуска диска: 1979
Производитель диска: USA
Аудио кодек: FLAC
Тип рипа: tracks+.cue
Битрейт аудио: lossless
Продолжительность: 1:36:05
1. The End (04:15)
2. Saigon (01:38) narration & dialogue
3. The End Part 2 (01:37)
4. Terminate (05:44) narration & dialogue
5. The Delta (02:38)
6. P.B.R. (02:02) narration & dialogue
7. Dossier #I (01:51)
8. Colonel Kilgore (05:43) narration & dialogue
9. Orange Light (02:15)
10. The Ride of the Valkyries (02:00)
11. Napalm in the Morning (00:55) dialogue
12. Pre-Tiger (04:50)
13. Dossier #II (03:30)
14. Susie Q (04:26)
15. Dossier #III (03:09)
16. 75 Klicks (01:09) dialogue
17. The Nung River (03:10)
1. Do Lung Bridge (09:37)
2. Letters From Home (02:39)
3. Clean's Death (03:10)
4. Chief's Death / Strange Voyage (06:47)
5. Strange Voyage (04:16)
6. Kurtz' Compound (02:18) dialogue
7. Willard's Capture (01:18)
8. Errand Boy (02:04) dialogue
9. Chef's Head (02:04)
10. The Hollow Men (01:09)
11. Horror (05:42) dialogue
12. Even the Jungl Wanted Him Dead (01:01)dialogue
13. The End (03:14)

Доп. информация:

Фильм однозначно в коллекцию. Музыку тоже.
[align=left]Exact Audio Copy V0.99 prebeta 5 from 4. May 2009

EAC extraction logfile from 28. July 2009, 3:32

Zoetrope Music Company / Apocalypse Now (CD 1 of 2)

Used drive : PIONEER DVD-RW DVR-115D Adapter: 0 ID: 0

Read mode : Secure
Utilize accurate stream : Yes
Defeat audio cache : Yes
Make use of C2 pointers : No

Read offset correction : 48
Overread into Lead-In and Lead-Out : No
Fill up missing offset samples with silence : Yes
Delete leading and trailing silent blocks : No
Null samples used in CRC calculations : Yes
Used interface : Native Win32 interface for Win NT & 2000
Gap handling : Appended to previous track

Used output format : User Defined Encoder
Selected bitrate : 1024 kBit/s
Quality : High
Add ID3 tag : No
Command line compressor : C:\Program Files\Exact Audio Copy\FLAC\FLAC.EXE
Additional command line options : -8 -V -T "ARTIST=%a" -T "TITLE=%t" -T "ALBUM=%g" -T "DATE=%y" -T "TRACKNUMBER=%n" -T "GENRE=%m" -T "COMMENT=%e" %s -o %d

TOC of the extracted CD

Track | Start | Length | Start sector | End sector
---------------------------------------------------------
1 | 0:00.32 | 4:14.13 | 32 | 19094
2 | 4:14.45 | 1:37.55 | 19095 | 26424
3 | 5:52.25 | 1:38.67 | 26425 | 33841
4 | 7:31.17 | 5:44.65 | 33842 | 59706
5 | 13:16.07 | 2:35.23 | 59707 | 71354
6 | 15:51.30 | 2:05.17 | 71355 | 80746
7 | 17:56.47 | 1:48.28 | 80747 | 88874
8 | 19:45.00 | 5:38.47 | 88875 | 114271
9 | 25:23.47 | 2:16.28 | 114272 | 124499
10 | 27:40.00 | 1:58.40 | 124500 | 133389
11 | 29:38.40 | 0:55.40 | 133390 | 137554
12 | 30:34.05 | 4:47.30 | 137555 | 159109
13 | 35:21.35 | 3:29.55 | 159110 | 174839
14 | 38:51.15 | 4:35.67 | 174840 | 195531
15 | 43:27.07 | 3:07.48 | 195532 | 209604
16 | 46:34.55 | 1:09.65 | 209605 | 214844
17 | 47:44.45 | 3:08.32 | 214845 | 228976

Track 1

Filename C:\ZZZ\APOCALYPSE NOW (1979) Original Motion Picture Soundtrack\Disc 1\01 - The End (The Doors).wav

Pre-gap length 0:00:02.32

Peak level 87.3 %
Track quality 100.0 %
Test CRC 9CA8AC48
Copy CRC 9CA8AC48
Accurately ripped (confidence 7) [0AB4E49D]
Copy OK

Track 2

Filename C:\ZZZ\APOCALYPSE NOW (1979) Original Motion Picture Soundtrack\Disc 1\02 - Saigon (Narration and Dialogue).wav

Peak level 33.5 %
Track quality 100.0 %
Test CRC 41726F62
Copy CRC 41726F62
Accurately ripped (confidence 6) [2BF94848]
Copy OK

Track 3

Filename C:\ZZZ\APOCALYPSE NOW (1979) Original Motion Picture Soundtrack\Disc 1\03 - The End Part 2.wav

Peak level 77.6 %
Track quality 100.0 %
Test CRC B8BBCA28
Copy CRC B8BBCA28
Accurately ripped (confidence 7) [D1436F13]
Copy OK

Track 4

Filename C:\ZZZ\APOCALYPSE NOW (1979) Original Motion Picture Soundtrack\Disc 1\04 - Terminate (Narration and Dialogue).wav

Peak level 49.6 %
Track quality 100.0 %
Test CRC CA42358F
Copy CRC CA42358F
Accurately ripped (confidence 6) [4BCB0D3D]
Copy OK

Track 5

Filename C:\ZZZ\APOCALYPSE NOW (1979) Original Motion Picture Soundtrack\Disc 1\05 - The Delta.wav

Peak level 45.7 %
Track quality 100.0 %
Test CRC DDFE4BE4
Copy CRC DDFE4BE4
Accurately ripped (confidence 7) [A5DA6C78]
Copy OK

Track 6

Filename C:\ZZZ\APOCALYPSE NOW (1979) Original Motion Picture Soundtrack\Disc 1\06 - P.B.R. (Narration and Dialogue).wav

Peak level 42.4 %
Track quality 100.0 %
Test CRC 99583193
Copy CRC 99583193
Accurately ripped (confidence 6) [3D5BEC1F]
Copy OK

Track 7

Filename C:\ZZZ\APOCALYPSE NOW (1979) Original Motion Picture Soundtrack\Disc 1\07 - Dossier.wav

Peak level 49.5 %
Track quality 100.0 %
Test CRC F3623AA3
Copy CRC F3623AA3
Accurately ripped (confidence 7) [0ABE3434]
Copy OK

Track 8

Filename C:\ZZZ\APOCALYPSE NOW (1979) Original Motion Picture Soundtrack\Disc 1\08 - Colonel Kilgore (Narration and Dialogue).wav

Peak level 72.0 %
Track quality 100.0 %
Test CRC 4740896D
Copy CRC 4740896D
Accurately ripped (confidence 6) [1D904E76]
Copy OK

Track 9

Filename C:\ZZZ\APOCALYPSE NOW (1979) Original Motion Picture Soundtrack\Disc 1\09 - Orange Light.wav

Peak level 64.3 %
Track quality 100.0 %
Test CRC C5B3D4C0
Copy CRC C5B3D4C0
Accurately ripped (confidence 7) [54B50FDF]
Copy OK

Track 10

Filename C:\ZZZ\APOCALYPSE NOW (1979) Original Motion Picture Soundtrack\Disc 1\10 - The Ride Of The Valkyries (Richard Wagner).wav

Peak level 76.4 %
Track quality 99.9 %
Test CRC 0FF8FD3F
Copy CRC 0FF8FD3F
Accurately ripped (confidence 7) [B04E27DF]
Copy OK

Track 11

Filename C:\ZZZ\APOCALYPSE NOW (1979) Original Motion Picture Soundtrack\Disc 1\11 - Napalm In The Morning (Dialogue).wav

Peak level 44.5 %
Track quality 100.0 %
Test CRC B76827FB
Copy CRC B76827FB
Accurately ripped (confidence 7) [E749A3CD]
Copy OK

Track 12

Filename C:\ZZZ\APOCALYPSE NOW (1979) Original Motion Picture Soundtrack\Disc 1\12 - Pre-Tiger.wav

Peak level 56.4 %
Track quality 100.0 %
Test CRC 1802FDB2
Copy CRC 1802FDB2
Accurately ripped (confidence 7) [B0D4E782]
Copy OK

Track 13

Filename C:\ZZZ\APOCALYPSE NOW (1979) Original Motion Picture Soundtrack\Disc 1\13 - Dossier #II.wav

Peak level 44.8 %
Track quality 100.0 %
Test CRC 38CA804D
Copy CRC 38CA804D
Accurately ripped (confidence 7) [0EDDE836]
Copy OK

Track 14

Filename C:\ZZZ\APOCALYPSE NOW (1979) Original Motion Picture Soundtrack\Disc 1\14 - Susie Q (Flash Cadillac).wav

Peak level 57.6 %
Track quality 100.0 %
Test CRC 9D9060A6
Copy CRC 9D9060A6
Accurately ripped (confidence 7) [4C82D721]
Copy OK

Track 15

Filename C:\ZZZ\APOCALYPSE NOW (1979) Original Motion Picture Soundtrack\Disc 1\15 - Dossier #III.wav

Peak level 67.1 %
Track quality 99.9 %
Test CRC 47C0910A
Copy CRC 47C0910A
Accurately ripped (confidence 7) [911F35C4]
Copy OK

Track 16

Filename C:\ZZZ\APOCALYPSE NOW (1979) Original Motion Picture Soundtrack\Disc 1\16 - 75 Klicks (Dialogue).wav

Peak level 63.7 %
Track quality 100.0 %
Test CRC ACEF70B0
Copy CRC ACEF70B0
Accurately ripped (confidence 6) [F823284D]
Copy OK

Track 17

Filename C:\ZZZ\APOCALYPSE NOW (1979) Original Motion Picture Soundtrack\Disc 1\17 - The Nung River.wav

Peak level 64.6 %
Track quality 100.0 %
Test CRC E7703630
Copy CRC E7703630
Accurately ripped (confidence 6) [E7420D82]
Copy OK

All tracks accurately ripped

No errors occurred

End of status report
Exact Audio Copy V0.99 prebeta 5 from 4. May 2009

EAC extraction logfile from 28. July 2009, 3:51

Zoetrope Music Company / Apocalypse Now (CD 2 of 2)

Used drive : PIONEER DVD-RW DVR-115D Adapter: 0 ID: 0

Read mode : Secure
Utilize accurate stream : Yes
Defeat audio cache : Yes
Make use of C2 pointers : No

Read offset correction : 48
Overread into Lead-In and Lead-Out : No
Fill up missing offset samples with silence : Yes
Delete leading and trailing silent blocks : No
Null samples used in CRC calculations : Yes
Used interface : Native Win32 interface for Win NT & 2000
Gap handling : Appended to previous track

Used output format : User Defined Encoder
Selected bitrate : 1024 kBit/s
Quality : High
Add ID3 tag : No
Command line compressor : C:\Program Files\Exact Audio Copy\FLAC\FLAC.EXE
Additional command line options : -8 -V -T "ARTIST=%a" -T "TITLE=%t" -T "ALBUM=%g" -T "DATE=%y" -T "TRACKNUMBER=%n" -T "GENRE=%m" -T "COMMENT=%e" %s -o %d

TOC of the extracted CD

Track | Start | Length | Start sector | End sector
---------------------------------------------------------
1 | 0:00.32 | 9:37.73 | 32 | 43379
2 | 9:38.30 | 2:29.62 | 43380 | 54616
3 | 12:08.17 | 3:11.68 | 54617 | 69009
4 | 15:20.10 | 6:48.32 | 69010 | 99641
5 | 22:08.42 | 4:15.33 | 99642 | 118799
6 | 26:24.00 | 2:18.72 | 118800 | 129221
7 | 28:42.72 | 1:17.68 | 129222 | 135064
8 | 30:00.65 | 2:06.02 | 135065 | 144516
9 | 32:06.67 | 2:01.05 | 144517 | 153596
10 | 34:07.72 | 1:09.68 | 153597 | 158839
11 | 35:17.65 | 5:40.32 | 158840 | 184371
12 | 40:58.22 | 1:01.25 | 184372 | 188971
13 | 41:59.47 | 3:13.38 | 188972 | 203484

Track 1

Filename C:\ZZZ\APOCALYPSE NOW (1979) Original Motion Picture Soundtrack\Disc 2\01 - Do Lung Bridge.wav

Pre-gap length 0:00:02.32

Peak level 80.6 %
Track quality 100.0 %
Test CRC 54BE756B
Copy CRC 54BE756B
Accurately ripped (confidence 3) [36486896]
Copy OK

Track 2

Filename C:\ZZZ\APOCALYPSE NOW (1979) Original Motion Picture Soundtrack\Disc 2\02 - Letters From Home.wav

Pre-gap length 0:00:00.02

Peak level 100.0 %
Track quality 100.0 %
Test CRC F543D33B
Copy CRC F543D33B
Accurately ripped (confidence 3) [1490DB2D]
Copy OK

Track 3

Filename C:\ZZZ\APOCALYPSE NOW (1979) Original Motion Picture Soundtrack\Disc 2\03 - Clean's Death.wav

Pre-gap length 0:00:00.02

Peak level 74.4 %
Track quality 99.9 %
Test CRC B842C711
Copy CRC B842C711
Accurately ripped (confidence 2) [C21E08B0]
Copy OK

Track 4

Filename C:\ZZZ\APOCALYPSE NOW (1979) Original Motion Picture Soundtrack\Disc 2\04 - Chief's Death -- Strange Voyage.wav

Pre-gap length 0:00:00.02

Peak level 65.7 %
Track quality 99.9 %
Test CRC 3FDB7BB8
Copy CRC 3FDB7BB8
Accurately ripped (confidence 3) [4E0E1116]
Copy OK

Track 5

Filename C:\ZZZ\APOCALYPSE NOW (1979) Original Motion Picture Soundtrack\Disc 2\05 - Strange Voyage.wav

Pre-gap length 0:00:02.74

Peak level 64.5 %
Track quality 100.0 %
Test CRC C54A0D76
Copy CRC C54A0D76
Accurately ripped (confidence 3) [B3D4E786]
Copy OK

Track 6

Filename C:\ZZZ\APOCALYPSE NOW (1979) Original Motion Picture Soundtrack\Disc 2\06 - Kurtz' Compound (Dialogue).wav

Pre-gap length 0:00:00.02

Peak level 51.0 %
Track quality 100.0 %
Test CRC 60DFA085
Copy CRC 60DFA085
Accurately ripped (confidence 2) [B77D30D4]
Copy OK

Track 7

Filename C:\ZZZ\APOCALYPSE NOW (1979) Original Motion Picture Soundtrack\Disc 2\07 - Willard's Capture.wav

Pre-gap length 0:00:00.02

Peak level 71.3 %
Track quality 100.0 %
Test CRC E01243F3
Copy CRC E01243F3
Accurately ripped (confidence 2) [E4F8F206]
Copy OK

Track 8

Filename C:\ZZZ\APOCALYPSE NOW (1979) Original Motion Picture Soundtrack\Disc 2\08 - Errand Boy (Dialogue).wav

Pre-gap length 0:00:00.02

Peak level 23.4 %
Track quality 100.0 %
Test CRC 75F7EAC8
Copy CRC 75F7EAC8
Accurately ripped (confidence 2) [F83FA487]
Copy OK

Track 9

Filename C:\ZZZ\APOCALYPSE NOW (1979) Original Motion Picture Soundtrack\Disc 2\09 - Chef's Head.wav

Pre-gap length 0:00:00.02

Peak level 54.0 %
Track quality 100.0 %
Test CRC AC6A9181
Copy CRC AC6A9181
Accurately ripped (confidence 2) [173EAED9]
Copy OK

Track 10

Filename C:\ZZZ\APOCALYPSE NOW (1979) Original Motion Picture Soundtrack\Disc 2\10 - The Hollow Men (T.S. Eliot).wav

Pre-gap length 0:00:00.02

Peak level 32.8 %
Track quality 100.0 %
Test CRC 34B18A27
Copy CRC 34B18A27
Accurately ripped (confidence 2) [E64932F4]
Copy OK

Track 11

Filename C:\ZZZ\APOCALYPSE NOW (1979) Original Motion Picture Soundtrack\Disc 2\11 - Horror (Dialogue).wav

Pre-gap length 0:00:00.02

Peak level 59.2 %
Track quality 100.0 %
Test CRC A871F461
Copy CRC A871F461
Accurately ripped (confidence 2) [27FA7A26]
Copy OK

Track 12

Filename C:\ZZZ\APOCALYPSE NOW (1979) Original Motion Picture Soundtrack\Disc 2\12 - Even The Jungle Wanted Him Dead (Dialogue).wav

Pre-gap length 0:00:00.02

Peak level 20.7 %
Track quality 100.0 %
Test CRC 47CDAF13
Copy CRC 47CDAF13
Accurately ripped (confidence 2) [8A3C7C5D]
Copy OK

Track 13

Filename C:\ZZZ\APOCALYPSE NOW (1979) Original Motion Picture Soundtrack\Disc 2\13 - The End.wav

Pre-gap length 0:00:00.02

Peak level 88.0 %
Track quality 100.0 %
Test CRC BD7C5B03
Copy CRC BD7C5B03
Accurately ripped (confidence 3) [97E22A92]
Copy OK

All tracks accurately ripped

No errors occurred

End of status report


Трекер:  [ 11-Янв-2011 14:45 ]

  

Скачать .torrent

Размер .torrent файла 22 KB


Размер: 478 MB
Хэш (hash) релиза: 3be7b32497ed19b36af6476c538cdee8efad07e9

Торренты, похожие на Apocalypse Now 2 CD Апокалипсис сегодня скачать торрент

Форум Название Автор Размер S L Добавлен
Саундтреки к фильмам и мультфильмам (mp3) ·· (Soundtrack) Апокалипсис сегодня / Apocalypse Now - Definitive Edition 2 CD - 1979, MP3, 320 kbps Galfimbul 231004147220 MB 0 0 1292266101

21:48

13-Дек-10

bot

Топик был перенесен в форум Саундтреки к фильмам и мультфильмам (lossless)

Перенес AqvaGen

Хотите добавить комментарий к записи скачать торрент Apocalypse Now 2 CD Апокалипсис сегодня

!Обратная связь