Скачать через торрент музыку Whale Rider by Lisa Gerrard - 2003, FLAC бесплатно без регистрации torrent

Статистика раздачи
Размер:  215 MB   |    Зарегистрирован:  6 лет 9 месяцев   |    .torrent скачан:  50 раз   |   
Раздают:  1  
   
загрузка...
 
Автор Сообщение

Galfimbul

avatar Galfimbul


Lisa Gerrard - Whale Rider (OST)

Страна: USA

Жанр: World Music, Ethnic

Год выпуска: 2003

Формат: FLAC (tracks)

Битрейт аудио: 725/724 kbps

Продолжительность: 41:23

Трэклист:

01. Paikea Legend
02. Journey Away
03. Rejection
04. Biking Home
05. Ancestors
06. Suitcase
07. Pai Calls the Whales
08. Reiputa
09. Disappointed
10. They Came to Die
11. Pai Theme
12. Paikea's Whale
13. Empty Water
14. Waka in the Sky
15. Go Forward
EAC extraction logfile from 26. July 2007, 17:31 for CD
Lisa Gerrard / Whale Rider

Used drive : _NEC DVD_RW ND-3551A Adapter: 0 ID: 0
Read mode : Secure with NO C2, accurate stream, disable cache
Read offset correction : 48
Overread into Lead-In and Lead-Out : No

Used output format : C:\Program Files\Exact Audio Copy\flac.exe (User Defined Encoder)
320 kBit/s
Additional command line options : -5 -V -T "ARTIST=%a" -T "TITLE=%t" -T "ALBUM=%g" -T "DATE=%y" -T "TRACKNUMBER=%n" -T "GENRE=%m" -T "COMMENT=EAC Flac 1.1.2 -5" %s

Other options :
Fill up missing offset samples with silence : Yes
Delete leading and trailing silent blocks : No
Installed external ASPI interface

Track 1
Filename F:\Stuff\Lisa Gerrard - Whale Rider\01 - Paikea Legend.wav

Peak level 74.6 %
Track quality 100.0 %
Test CRC 0622BEA8
Copy CRC 0622BEA8
Copy OK

Track 2
Filename F:\Stuff\Lisa Gerrard - Whale Rider\02 - Journey Away.wav

Peak level 98.8 %
Track quality 99.9 %
Test CRC A3DB982D
Copy CRC A3DB982D
Copy OK

Track 3
Filename F:\Stuff\Lisa Gerrard - Whale Rider\03 - Rejection.wav

Peak level 51.3 %
Track quality 100.0 %
Test CRC F922E164
Copy CRC F922E164
Copy OK

Track 4
Filename F:\Stuff\Lisa Gerrard - Whale Rider\04 - Biking Home.wav

Peak level 98.8 %
Track quality 99.9 %
Test CRC 1A07533A
Copy CRC 1A07533A
Copy OK

Track 5
Filename F:\Stuff\Lisa Gerrard - Whale Rider\05 - Ancestors.wav

Peak level 60.9 %
Track quality 100.0 %
Test CRC 3A7A6607
Copy CRC 3A7A6607
Copy OK

Track 6
Filename F:\Stuff\Lisa Gerrard - Whale Rider\06 - Suitcase.wav

Peak level 47.6 %
Track quality 100.0 %
Test CRC 7FD27CD6
Copy CRC 7FD27CD6
Copy OK

Track 7
Filename F:\Stuff\Lisa Gerrard - Whale Rider\07 - Pai Calls the Whales.wav

Peak level 98.8 %
Track quality 100.0 %
Test CRC 03D55CA7
Copy CRC 03D55CA7
Copy OK

Track 8
Filename F:\Stuff\Lisa Gerrard - Whale Rider\08 - Reiputa.wav

Peak level 97.6 %
Track quality 100.0 %
Test CRC 9EEA943C
Copy CRC 9EEA943C
Copy OK

Track 9
Filename F:\Stuff\Lisa Gerrard - Whale Rider\09 - Disappointed.wav

Peak level 90.5 %
Track quality 100.0 %
Test CRC 36CB3954
Copy CRC 36CB3954
Copy OK

Track 10
Filename F:\Stuff\Lisa Gerrard - Whale Rider\10 - They Came To Die.wav

Peak level 85.5 %
Track quality 100.0 %
Test CRC C3448499
Copy CRC C3448499
Copy OK

Track 11
Filename F:\Stuff\Lisa Gerrard - Whale Rider\11 - Pai Theme.wav

Peak level 69.0 %
Track quality 100.0 %
Test CRC 0561CFCC
Copy CRC 0561CFCC
Copy OK

Track 12
Filename F:\Stuff\Lisa Gerrard - Whale Rider\12 - Paikea's Whale.wav

Peak level 88.0 %
Track quality 99.9 %
Test CRC 37882574
Copy CRC 37882574
Copy OK

Track 13
Filename F:\Stuff\Lisa Gerrard - Whale Rider\13 - Empty Water.wav

Peak level 75.8 %
Track quality 100.0 %
Test CRC 25DFF7A5
Copy CRC 25DFF7A5
Copy OK

Track 14
Filename F:\Stuff\Lisa Gerrard - Whale Rider\14 - Wakak in the Sky.wav

Peak level 98.8 %
Track quality 99.9 %
Test CRC E2C8EDA7
Copy CRC E2C8EDA7
Copy OK

Track 15
Filename F:\Stuff\Lisa Gerrard - Whale Rider\15 - Go Forward.wav

Peak level 98.8 %
Track quality 100.0 %
Test CRC 5B815FD2
Copy CRC 5B815FD2
Copy OK

No errors occured

End of status report
Dear guest, If you wish to thank me, please press this button


Трекер:  [ 07-Июл-2011 22:59 ]

  

Скачать .torrent

Размер .torrent файла 18 KB


Размер: 215 MB
Хэш (hash) релиза: 5b4b05801a35abea99f9bd175b57dbc0cca901b9

Еще никто не оставлял запись к записи скачать торрент Whale Rider by Lisa Gerrard - 2003, FLAC . Будь первым!

!Обратная связь