Скачать через торрент музыку Eleni Karaindrou - Собрание сочинени бесплатно без регистрации torrent

Статистика раздачи
Размер:  1.5 GB   |    Зарегистрирован:  7 лет 1 месяц   |    .torrent скачан:  56 раз   |   
Раздают:  1  
   
загрузка...
 
Автор Сообщение

Galfimbul

avatar Galfimbul


Eleni Karaindrou - Собрание сочинений

Жанр: Score
Тип рипа: image+.cue
Битрейт аудио: lossless
Трэклист:
Концертное исполнение лучших произведений композитора, состоявшееся в Афинах.
01. Prayer
02. Refugee's Theme
03. The Weeping Meadow
04. Dance
05. An ode of Tears
06. For the Phrygian Land a Vast Mourning
07. By the Sea
08. Depart and Eternity Theme
09. Rosa's Aria
10. Memories
11. Hecuba's Lament/Hecuba's Theme II
12. Telamon, You Came to Conquer Our Town
13. The City That Gave Birth to You was Consumed by Fire
14. An Ode of Tears
15. Theme of the Uprooting
16. The Weeping Meadow II
17. Voyage
18. Voyage to Cythera
19. On the Road
EAC extraction logfile from 30. June 2007, 3:47 for CD
Eleni Karaindrou / Elegy of the Uprooting

Used drive : _NEC DVD_RW ND-3520A Adapter: 0 ID: 0
Read mode : Secure with NO C2, accurate stream, disable cache
Read offset correction : 48
Overread into Lead-In and Lead-Out : No

Used output format : F:\Program Files\FLAC\flac.exe (User Defined Encoder)
128 kBit/s
Additional command line options : --best -V -T "date=%y" -T "genre=%m" %s

Other options :
Fill up missing offset samples with silence : Yes
Delete leading and trailing silent blocks : No
Installed external ASPI interface

Range status and errors
Selected range
Filename H:\encoded\Eleni Karaindrou - Elegy of the Uprooting.wav.wav.wav

Peak level 75.2 %
Range quality 99.9 %
CRC 8A0E51F1
Copy OK

No errors occured

End of status report
01. Parade
02. Return
03. Andromache's Theme
04. The Land I call Home
05. Home of My Forefathers
06. I Wish I'm Given There
07. Refugee's Theme
08. The Seagull
09. Song of the Lake
10. Adagio - Father's Theme
11. In Vain the Sacrifices
12. My Beloved, Your Soul Is Wondering
13. Decision
14. Farewell Theme
15. Theme of the Lake
16. Hecuba's Theme II
17. Lament for Astyanax
18. Exodos
19. The Weeping Meadow
EAC extraction logfile from 30. June 2007, 4:04 for CD
Eleni Karaindrou / Elegy of the Uprooting

Used drive : _NEC DVD_RW ND-3520A Adapter: 0 ID: 0
Read mode : Secure with NO C2, accurate stream, disable cache
Read offset correction : 48
Overread into Lead-In and Lead-Out : No

Used output format : F:\Program Files\FLAC\flac.exe (User Defined Encoder)
128 kBit/s
Additional command line options : --best -V -T "date=%y" -T "genre=%m" %s

Other options :
Fill up missing offset samples with silence : Yes
Delete leading and trailing silent blocks : No
Installed external ASPI interface

Range status and errors
Selected range
Filename H:\encoded\Eleni Karaindrou - Elegy of the Uprooting.wav.wav.wav

Peak level 67.4 %
Range quality 99.9 %
CRC 8605A492
Copy OK

No errors occured

End of status report
01. Hearing the Time
02. By the Sea
03. Eternity Theme
04. Parting A
05. Depart and Eternity Theme
06. Borders
07. Wedding Dance (Traditional)
08. Parting B
09. To a Dead Friend
10. Eternity Theme: Variation I
11. Depart and Eternity Theme: Variation I
12. Bus - Part I
13. Depart and Eternity Theme: Variation II
14. Bus - Part II
15. Trio and Eternity Theme
16. The Poet
17. Depart and Eternity Theme: Variation III
18. Depart
EAC extraction logfile from 17. January 2006, 21:49 for CD
Eleni Karaindrou / Eternity and a Day

Used drive : _NEC DVD_RW ND-3550A Adapter: 0 ID: 0
Read mode : Secure with NO C2, accurate stream, disable cache
Read offset correction : 0
Overread into Lead-In and Lead-Out : No

Used output format : Monkey's Audio Lossless Encoder v3.99 DLL
Fast Lossless Compression

Other options :
Fill up missing offset samples with silence : Yes
Delete leading and trailing silent blocks : No
Installed external ASPI interface

Range status and errors
Selected range
Filename C:\Eternity and a Day Soundtrack - Eleni Karaindrou (ECM NS 1692) [EAC-APE-CUE-LOG] by UNREST\Eleni Karaindrou - Eternity and a Day.ape

Peak level 92.9 %
Range quality 100.0 %
CRC 5222DBAE
Copy OK

No errors occured

End of status report
01. Refugee's Theme
02. Search - Refugee's Theme Variation A
03. The Suspended Step
04. Train-Car Neighbourhood Variation A
05. Refugee's Theme
06. The River - Refugee's Theme
07. Refugee's Theme Symphonic Variation No.1
08. Train-Car Neighboorhood Variation B
09. Refugee's Theme Symphonic Variation No.2
10. Hassaposerviko
11. Search - Refugee's Theme Variation B
12. Waltz Of The Bride
13. Finale
14. The River - Refugee's Theme
Exact Audio Copy V0.99 prebeta 4 from 23. January 2008

EAC extraction logfile from 3. April 2008, 0:05

Eleni Karaindrou / The Suspended Step Of The Stork

Used drive : PLEXTOR CD-R PX-W5224A Adapter: 4 ID: 0

Read mode : Secure
Utilize accurate stream : Yes
Defeat audio cache : Yes
Make use of C2 pointers : No

Read offset correction : 30
Overread into Lead-In and Lead-Out : Yes
Fill up missing offset samples with silence : Yes
Delete leading and trailing silent blocks : No
Null samples used in CRC calculations : Yes
Used interface : Native Win32 interface for Win NT & 2000

Used output format : User Defined Encoder
Selected bitrate : 768 kBit/s
Quality : High
Add ID3 tag : No
Command line compressor : c:\Program Files\Tools CD\Exact Audio Copy\FLAC\FLAC.EXE
Additional command line options : -o %d --best %s

TOC of the extracted CD

Track | Start | Length | Start sector | End sector
---------------------------------------------------------
1 | 0:00.00 | 1:23.10 | 0 | 6234
2 | 1:23.10 | 1:23.30 | 6235 | 12489
3 | 2:46.40 | 13:12.67 | 12490 | 71956
4 | 15:59.32 | 1:31.10 | 71957 | 78791
5 | 17:30.42 | 1:24.55 | 78792 | 85146
6 | 18:55.22 | 1:07.48 | 85147 | 90219
7 | 20:02.70 | 2:17.42 | 90220 | 100536
8 | 22:20.37 | 1:39.03 | 100537 | 107964
9 | 23:59.40 | 0:47.72 | 107965 | 111561
10 | 24:47.37 | 1:46.58 | 111562 | 119569
11 | 26:34.20 | 1:18.15 | 119570 | 125434
12 | 27:52.35 | 2:38.27 | 125435 | 137311
13 | 30:30.62 | 4:20.63 | 137312 | 156874
14 | 34:51.50 | 1:04.40 | 156875 | 161714

Range status and errors

Selected range

Filename D:\Music.wrk\ripped\Eleni Karaindrou\The Suspended Step Of The Stork\CDImage.wav

Peak level 97.7 %
Range quality 100.0 %
Copy CRC ED78D67B
Copy OK

No errors occurred

AccurateRip summary

Track 1 not present in database
Track 2 not present in database
Track 3 not present in database
Track 4 not present in database
Track 5 not present in database
Track 6 not present in database
Track 7 not present in database
Track 8 not present in database
Track 9 not present in database
Track 10 not present in database
Track 11 not present in database
Track 12 not present in database
Track 13 not present in database
Track 14 not present in database

None of the tracks are present in the AccurateRip database

End of status report
01. EVoices
02. Lament I
03. Desolate Land I
04. Lament II
05. Hecuba's Lament
06. Parodos, The Land I Call Home
07. Parodos, Homes of my Forefathers
08. Parodos, I wish I'm given there
09. Cassandra's Theme
10. Cassandra's Trance
11. First Stasimon, An Ode of Tears
12. First Stasimon, For the Phrygian Land a Vast Mourning
13. Andromache's Theme
14. Andromache's Lament
15. Terra Deserta
16. Astyanax' Theme
17. Hecuba's Theme I
18. Hecuba's Theme II
19. Second Stasimon, Telamon You Came To Conquer Our Town
20. Second Stasimon, The City That Gave Birth To You...
21. An Ode of Tears
22. Desolate Land II
23. Lament III
24. Third Stasimon, In Vain The Sacrifices
25. Third stasimon, My Beloved Your Soul Is Wandering
26. Hecuba's Theme
27. Lament for Astyanax
28. Exodos
29. Exodos, Accursed Town
30. Astyanax' Memory
Exact Audio Copy V0.99 prebeta 1 from 25. May 2007

Archivo Log de extracciones desde 29. Diciembre 2007, 23:41

Eleni Karaindrou / Trojan Women

Usar unidad : HL-DT-STDVDRAM GSA-4163B Adapter: 1 ID: 0

Modo de Lectura : Seguro
Utilizar Corriente Exacta : Sн
Descartar Audio cachй : Sн
Utilizar los punteros C2 : No

Correcciуn de Desplazamiento de Lectura : 667
Sobreleer tanto en Lead-In como en Lead-Out : No
Rellenar las muestras faltantes con silencios : Sн
Eliminar silencios inicial y final : No
Interfaz usada : Interfaz ASPI externo instalado

Formato de Salida utilizado : Rutinas WAV Internas
Formato de Muestreo : 44.100 Hz; 16 Bit; Estйreo

TOC del CD extraido

Pista | Inicio | Duraciуn | Sector inicial | Sector final
-------------------------------------------------------------
1 | 0:00.00 | 2:10.32 | 0 | 9781
2 | 2:10.32 | 1:16.73 | 9782 | 15554
3 | 3:27.30 | 1:07.03 | 15555 | 20582
4 | 4:34.33 | 1:06.53 | 20583 | 25585
5 | 5:41.11 | 1:27.31 | 25586 | 32141
6 | 7:08.42 | 2:18.43 | 32142 | 42534
7 | 9:27.10 | 1:50.58 | 42535 | 50842
8 | 11:17.68 | 1:36.59 | 50843 | 58101
9 | 12:54.52 | 2:03.57 | 58102 | 67383
10 | 14:58.34 | 2:53.46 | 67384 | 80404
11 | 17:52.05 | 4:05.40 | 80405 | 98819
12 | 21:57.45 | 2:01.11 | 98820 | 107905
13 | 23:58.56 | 1:10.59 | 107906 | 113214
14 | 25:09.40 | 1:08.29 | 113215 | 118343
15 | 26:17.69 | 2:18.29 | 118344 | 128722
16 | 28:36.23 | 1:02.36 | 128723 | 133408
17 | 29:38.59 | 0:42.51 | 133409 | 136609
18 | 30:21.35 | 0:38.49 | 136610 | 139508
19 | 31:00.09 | 1:53.22 | 139509 | 148005
20 | 32:53.31 | 1:17.60 | 148006 | 153840
21 | 34:11.16 | 1:01.13 | 153841 | 158428
22 | 35:12.29 | 1:08.24 | 158429 | 163552
23 | 36:20.53 | 0:42.74 | 163553 | 166776
24 | 37:03.52 | 2:05.08 | 166777 | 176159
25 | 39:08.60 | 3:10.39 | 176160 | 190448
26 | 42:19.24 | 1:18.29 | 190449 | 196327
27 | 43:37.53 | 1:53.25 | 196328 | 204827
28 | 45:31.03 | 2:25.16 | 204828 | 215718
29 | 47:56.19 | 1:02.62 | 215719 | 220430
30 | 48:59.06 | 1:01.11 | 220431 | 225016

Gama de estados y errores

Seleccionar gama

Nombre de Archivo D:\@Ripeando\Eleni Karaindrou - Trojan Women\Eleni Karaindrou - Trojan Women.wav

Nivel Pico 100.0 %
Gama de Calidad 99.9 %
Test CRC A17556EE
Copiar CRC A17556EE
Copia OK

Resumen AccurateRip

Pista 1 extraido de modo preciso (nivel de confianza 1) [4E977D68]
Pista 2 extraido de modo preciso (nivel de confianza 1) [020A8556]
Pista 3 extraido de modo preciso (nivel de confianza 1) [CAB059C8]
Pista 4 extraido de modo preciso (nivel de confianza 1) [7BAA9AAF]
Pista 5 extraido de modo preciso (nivel de confianza 1) [20D6A560]
Pista 6 extraido de modo preciso (nivel de confianza 1) [66CEBC34]
Pista 7 extraido de modo preciso (nivel de confianza 1) [7C5ECD46]
Pista 8 extraido de modo preciso (nivel de confianza 1) [6FB4F99D]
Pista 9 extraido de modo preciso (nivel de confianza 1) [C6837CB4]
Pista 10 extraido de modo preciso (nivel de confianza 1) [0CAA1E81]
Pista 11 extraido de modo preciso (nivel de confianza 1) [66F09177]
Pista 12 extraido de modo preciso (nivel de confianza 1) [542CA73B]
Pista 13 extraido de modo preciso (nivel de confianza 1) [BCE0C02B]
Pista 14 extraido de modo preciso (nivel de confianza 1) [AE56DD53]
Pista 15 extraido de modo preciso (nivel de confianza 1) [294D4CD3]
Pista 16 extraido de modo preciso (nivel de confianza 1) [4248F7BD]
Pista 17 extraido de modo preciso (nivel de confianza 1) [7FE913CD]
Pista 18 extraido de modo preciso (nivel de confianza 1) [4EA68271]
Pista 19 extraido de modo preciso (nivel de confianza 1) [22412BE8]
Pista 20 extraido de modo preciso (nivel de confianza 1) [DF8B5952]
Pista 21 extraido de modo preciso (nivel de confianza 1) [D79E79EC]
Pista 22 extraido de modo preciso (nivel de confianza 1) [F8C1B85B]
Pista 23 extraido de modo preciso (nivel de confianza 1) [2369372B]
Pista 24 no presente en la base de datos
Pista 25 no presente en la base de datos
Pista 26 no presente en la base de datos
Pista 27 no presente en la base de datos
Pista 28 no presente en la base de datos
Pista 29 no presente en la base de datos
Pista 30 no presente en la base de datos

Sin Errores

Final del Informe
01. Ulysses' Theme
02. Litany (Variation I)
03. Ulysses' Theme (Variation I)
04. Woman's Theme
05. Ulysses' Theme (Variation II)
06. Ulysses' Theme (Variation III)
07. The River
08. Ulysses' Theme
09. Ulysses' Theme, Litany
10. Ulysses' Gaze
11. Byzantine Psalm (Traditional)
12. Ulysses' Theme (Variation IV)
13. Ulysses' Theme (Variation V)
14. Ulysses' Theme (Variation VI)
15. Ulysses' Theme, Lento, Largo
16. Litany (Variation II)
17. Ulysses' Theme (Variation VII)
EAC extraction logfile from 17. January 2006, 22:05 for CD
Eleni Karaindrou / Ulysses' Gaze

Used drive : _NEC DVD_RW ND-3550A Adapter: 0 ID: 0
Read mode : Secure with NO C2, accurate stream, disable cache
Read offset correction : 0
Overread into Lead-In and Lead-Out : No

Used output format : Monkey's Audio Lossless Encoder v3.99 DLL
Fast Lossless Compression

Other options :
Fill up missing offset samples with silence : Yes
Delete leading and trailing silent blocks : No
Installed external ASPI interface

Range status and errors
Selected range
Filename C:\Ulysse's Gaze Soundtrack - Eleni Karaindrou (ECM NS 1570) [EAC-APE-CUE-LOG] by UNREST\Eleni Karaindrou - Ulysses' Gaze Soundtrack.ape

Peak level 82.6 %
Range quality 100.0 %
CRC 7F474AC9
Copy OK

No errors occured

End of status report
01. The Weeping Meadow
02. Theme of the Uprooting I
03. Waiting 1
04. Memories
05. The Tree
06. Young Man's Theme I
07. The Weeping Meadow I
08. Theme of the Uprooting II
09. Waiting II
10. Theme of the Uprooting
11. Prayer
12. The Tree
13. On the Road
14. Young Man's Theme
15. Theme of the Uprooting III
16. The Weeping Meadow II
Exact Audio Copy V0.99 prebeta 4 from 23. January 2008

EAC extraction logfile from 14. April 2008, 22:50

Eleni Karaindrou / The Weeping Meadow

Used drive : PLEXTOR CD-R PX-W5224A Adapter: 4 ID: 0

Read mode : Secure
Utilize accurate stream : Yes
Defeat audio cache : Yes
Make use of C2 pointers : No

Read offset correction : 30
Overread into Lead-In and Lead-Out : Yes
Fill up missing offset samples with silence : Yes
Delete leading and trailing silent blocks : No
Null samples used in CRC calculations : Yes
Used interface : Native Win32 interface for Win NT & 2000

Used output format : User Defined Encoder
Selected bitrate : 768 kBit/s
Quality : High
Add ID3 tag : No
Command line compressor : c:\Program Files\Tools CD\Exact Audio Copy\FLAC\FLAC.EXE
Additional command line options : -o %d --best %s

TOC of the extracted CD

Track | Start | Length | Start sector | End sector
---------------------------------------------------------
1 | 0:00.00 | 3:56.05 | 0 | 17704
2 | 3:56.05 | 1:08.25 | 17705 | 22829
3 | 5:04.30 | 4:18.00 | 22830 | 42179
4 | 9:22.30 | 3:34.36 | 42180 | 58265
5 | 12:56.66 | 2:42.56 | 58266 | 70471
6 | 15:39.47 | 1:56.28 | 70472 | 79199
7 | 17:36.00 | 3:23.09 | 79200 | 94433
8 | 20:59.09 | 1:18.26 | 94434 | 100309
9 | 22:17.35 | 2:02.38 | 100310 | 109497
10 | 24:19.73 | 3:06.71 | 109498 | 123518
11 | 27:26.69 | 4:14.14 | 123519 | 142582
12 | 31:41.08 | 2:44.61 | 142583 | 154943
13 | 34:25.69 | 3:38.04 | 154944 | 171297
14 | 38:03.73 | 2:10.69 | 171298 | 181116
15 | 40:14.67 | 1:10.13 | 181117 | 186379
16 | 41:25.05 | 2:38.15 | 186380 | 198244

Range status and errors

Selected range

Filename D:\Music.wrk\ripped\Eleni Karaindrou\The Weeping Meadow\CDImage.wav

Peak level 94.5 %
Range quality 100.0 %
Copy CRC 7A093BE8
Copy OK

No errors occurred

AccurateRip summary

Track 1 not present in database
Track 2 cannot be verified as accurate (confidence 1) [163846AB], AccurateRip returned [B1CB0588]
Track 3 cannot be verified as accurate (confidence 1) [A09718E9], AccurateRip returned [EE40AC22]
Track 4 cannot be verified as accurate (confidence 1) [4232768B], AccurateRip returned [556090EF]
Track 5 cannot be verified as accurate (confidence 1) [F9C8F89D], AccurateRip returned [76429395]
Track 6 cannot be verified as accurate (confidence 1) [6793C7E6], AccurateRip returned [834D6BAC]
Track 7 cannot be verified as accurate (confidence 1) [1F560496], AccurateRip returned [8F2F597A]
Track 8 cannot be verified as accurate (confidence 1) [2CD06ACF], AccurateRip returned [E72D2C75]
Track 9 cannot be verified as accurate (confidence 1) [B8D35BB4], AccurateRip returned [222B07F4]
Track 10 cannot be verified as accurate (confidence 1) [0AC7A002], AccurateRip returned [C8404F84]
Track 11 cannot be verified as accurate (confidence 1) [87210D2F], AccurateRip returned [D47360AF]
Track 12 cannot be verified as accurate (confidence 1) [C9968471], AccurateRip returned [42F828EB]
Track 13 cannot be verified as accurate (confidence 1) [7686BB75], AccurateRip returned [37A8EBA9]
Track 14 cannot be verified as accurate (confidence 1) [99E0798A], AccurateRip returned [CF1906DC]
Track 15 cannot be verified as accurate (confidence 1) [3EF40A2B], AccurateRip returned [85C5FA57]
Track 16 cannot be verified as accurate (confidence 1) [C00AA0BF], AccurateRip returned [94C50D85]

15 track(s) could not be verified as accurate
1 track(s) not present in the AccurateRip database

No tracks could be verified as accurate
You may have a different pressing from the one(s) in the database

End of status report


Трекер:  [ 07-Июл-2011 22:58 ]

  

Скачать .torrent

Размер .torrent файла 24 KB


Размер: 1.5 GB
Хэш (hash) релиза: 3a167b3af1d330a0e46952a25f393302f088642b

Еще никто не оставлял запись к записи скачать торрент Eleni Karaindrou - Собрание сочинени . Будь первым!

!Обратная связь