Скачать через торрент музыку Danny Elfman featuring Alice in Chains - Terminator: SalvationТерминатор 4: Да придёт спаситель - 2009, FLAC бесплатно без регистрации torrent

Статистика раздачи
Размер:  266 MB   |    Зарегистрирован:  7 лет 4 месяца   |    .torrent скачан:  51 раз   |   
Раздают:  1  
   
загрузка...
 
Автор Сообщение

Galfimbul

avatar Galfimbul


Danny Elfman featuring Alice in Chains - Terminator: Salvation



Жанр: Score
Год выпуска диска: 2009
Производитель диска: USA, Warner Bros.
Аудио кодек: FLAC
Тип рипа: tracks+.cue
Битрейт аудио: lossless
Продолжительность: 50:32

Трэклист:

1. Opening (06:01)
2. All Is Lost (02:45)
3. Broadcast (03:19)
4. The Harvester Returns (02:45)
5. Fireside (01:30)
6. No Plan (01:43)
7. Reveal / The Escape (07:44)
8. Hydrobot Attack (01:49)
9. Farewell (01:40)
10. Marcus Enters Skynet (03:22)
11. A Solution (01:44)
12. Serena (02:27)
13. Final Confrontation (04:14)
14. Salvation (03:05)
15. Rooster (06:16)

Доп. информация:
 
Exact Audio Copy V0.99 prebeta 5 from 4. May 2009

EAC extraction logfile from 29. May 2009, 21:51

Danny Elfman / Terminator: Salvation

Used drive : HP DVD Writer 840x Adapter: 1 ID: 0

Read mode : SecureUtilize accurate stream : YesDefeat audio cache : YesMake use of C2 pointers : No

Read offset correction : 102Overread into Lead-In and Lead-Out : NoFill up missing offset samples with silence : YesDelete leading and trailing silent blocks : NoNull samples used in CRC calculations : YesUsed interface : Installed external ASPI interfaceGap handling : Appended to previous track

Used output format : User Defined EncoderSelected bitrate : 320 kBit/sQuality : HighAdd ID3 tag : NoCommand line compressor : C:\Program Files\FLAC\flac.exeAdditional command line options : -V -8 -T "artist=%a" -T "title=%t" -T "album=%g" -T "date=%y" -T "tracknumber=%n" -T "genre=%m" %s

TOC of the extracted CD

Track | Start | Length | Start sector | End sector --------------------------------------------------------- 1 | 0:00.00 | 6:01.25 | 0 | 27099 2 | 6:01.25 | 2:45.17 | 27100 | 39491 3 | 8:46.42 | 3:19.21 | 39492 | 54437 4 | 12:05.63 | 2:45.08 | 54438 | 66820 5 | 14:50.71 | 1:31.16 | 66821 | 73661 6 | 16:22.12 | 1:43.03 | 73662 | 81389 7 | 18:05.15 | 7:44.11 | 81390 | 116200 8 | 25:49.26 | 1:49.12 | 116201 | 124387 9 | 27:38.38 | 1:40.21 | 124388 | 131908 10 | 29:18.59 | 3:23.41 | 131909 | 147174 11 | 32:42.25 | 1:44.60 | 147175 | 155034 12 | 34:27.10 | 2:28.22 | 155035 | 166156 13 | 36:55.32 | 4:14.23 | 166157 | 185229 14 | 41:09.55 | 3:07.70 | 185230 | 199324 15 | 44:17.50 | 6:14.60 | 199325 | 227434

Track 1

Filename N:\Music\Terminator- Salvation\Terminator- Salvation [2009, FLAC] - Danny Elfman\01 - Opening.wav

Pre-gap length 0:00:02.00

Peak level 99.5 % Track quality 100.0 % Test CRC 92402216 Copy CRC 92402216 Track not present in AccurateRip database Copy OK

Track 2

Filename N:\Music\Terminator- Salvation\Terminator- Salvation [2009, FLAC] - Danny Elfman\02 - All Is Lost.wav

Peak level 98.8 % Track quality 100.0 % Test CRC 857E5CBB Copy CRC 857E5CBB Track not present in AccurateRip database Copy OK

Track 3

Filename N:\Music\Terminator- Salvation\Terminator- Salvation [2009, FLAC] - Danny Elfman\03 - Broadcast.wav

Peak level 99.3 % Track quality 100.0 % Test CRC 924FF991 Copy CRC 924FF991 Track not present in AccurateRip database Copy OK

Track 4

Filename N:\Music\Terminator- Salvation\Terminator- Salvation [2009, FLAC] - Danny Elfman\04 - The Harvester Returns.wav

Peak level 99.6 % Track quality 100.0 % Test CRC 1914C50D Copy CRC 1914C50D Track not present in AccurateRip database Copy OK

Track 5

Filename N:\Music\Terminator- Salvation\Terminator- Salvation [2009, FLAC] - Danny Elfman\05 - Fireside.wav

Pre-gap length 0:00:00.05

Peak level 47.0 % Track quality 100.0 % Test CRC 948E583E Copy CRC 948E583E Track not present in AccurateRip database Copy OK

Track 6

Filename N:\Music\Terminator- Salvation\Terminator- Salvation [2009, FLAC] - Danny Elfman\06 - No Plan.wav

Pre-gap length 0:00:00.77

Peak level 98.5 % Track quality 100.0 % Test CRC 4377F416 Copy CRC 4377F416 Track not present in AccurateRip database Copy OK

Track 7

Filename N:\Music\Terminator- Salvation\Terminator- Salvation [2009, FLAC] - Danny Elfman\07 - Reveal - The Escape.wav

Peak level 99.9 % Track quality 100.0 % Test CRC 212169F1 Copy CRC 212169F1 Track not present in AccurateRip database Copy OK

Track 8

Filename N:\Music\Terminator- Salvation\Terminator- Salvation [2009, FLAC] - Danny Elfman\08 - Hydrobot Attack.wav

Peak level 99.9 % Track quality 100.0 % Test CRC 5C51FEB9 Copy CRC 5C51FEB9 Track not present in AccurateRip database Copy OK

Track 9

Filename N:\Music\Terminator- Salvation\Terminator- Salvation [2009, FLAC] - Danny Elfman\09 - Farewell.wav

Peak level 54.9 % Track quality 99.8 % Test CRC DC8FF05A Copy CRC DC8FF05A Track not present in AccurateRip database Copy OK

Track 10

Filename N:\Music\Terminator- Salvation\Terminator- Salvation [2009, FLAC] - Danny Elfman\10 - Marcus Enters Skynet.wav

Peak level 100.0 % Track quality 99.9 % Test CRC C1802FFD Copy CRC C1802FFD Track not present in AccurateRip database Copy OK

Track 11

Filename N:\Music\Terminator- Salvation\Terminator- Salvation [2009, FLAC] - Danny Elfman\11 - A Solution.wav

Pre-gap length 0:00:00.89

Peak level 98.5 % Track quality 100.0 % Test CRC 40186A89 Copy CRC 40186A89 Track not present in AccurateRip database Copy OK

Track 12

Filename N:\Music\Terminator- Salvation\Terminator- Salvation [2009, FLAC] - Danny Elfman\12 - Serena.wav

Pre-gap length 0:00:00.01

Peak level 98.8 % Track quality 100.0 % Test CRC F4A7A93D Copy CRC F4A7A93D Track not present in AccurateRip database Copy OK

Track 13

Filename N:\Music\Terminator- Salvation\Terminator- Salvation [2009, FLAC] - Danny Elfman\13 - Final Confrontation.wav

Peak level 100.0 % Track quality 100.0 % Test CRC CF8CB653 Copy CRC CF8CB653 Track not present in AccurateRip database Copy OK

Track 14

Filename N:\Music\Terminator- Salvation\Terminator- Salvation [2009, FLAC] - Danny Elfman\14 - Salvation.wav

Peak level 88.1 % Track quality 99.9 % Test CRC 88853808 Copy CRC 88853808 Track not present in AccurateRip database Copy OK

Track 15

Filename N:\Music\Terminator- Salvation\Terminator- Salvation [2009, FLAC] - Danny Elfman\15 - Rooster.wav

Pre-gap length 0:00:02.49

Peak level 99.3 % Track quality 100.0 % Test CRC D0E02718 Copy CRC D0E02718 Track not present in AccurateRip database Copy OK

None of the tracks are present in the AccurateRip database

No errors occurred

End of status report


Трекер:  [ 07-Июл-2011 22:58 ]

  

Скачать .torrent

Размер .torrent файла 11 KB


Размер: 266 MB
Хэш (hash) релиза: 72490aee37418c1caef17f39fcf7459bfe1ef3be

Еще никто не оставлял запись к записи скачать торрент Danny Elfman featuring Alice in Chains - Terminator: SalvationТерминатор 4: Да придёт спаситель - 2009, FLAC . Будь первым!

!Обратная связь