Скачать через торрент музыку VA - The Devil Wears Prada Дьявол носит Прада - 2006, FLAC бесплатно без регистрации torrent

Статистика раздачи
Размер:  363 MB   |    Зарегистрирован:  7 лет 4 месяца   |    .torrent скачан:  38 раз   |   
Раздают:  1  
   
загрузка...
 
Автор Сообщение

Galfimbul

avatar Galfimbul


Various Artists - The Devil Wears Prada / Дьявол носит Прада

Жанр: Soundtrack
Год выпуска диска: 2006
Производитель диска: EU
Аудио кодек: FLAC
Тип рипа: image+.cue
Битрейт аудио: lossless
Продолжительность: 54:17

Трэклист:
01. Madonna / Vogue [0:05:17.06]
02. Bitter:Sweet / Bittersweet Faith [0:04:20.00]
03. U2 / City Of Blinding Lights [0:05:44.60]
04. Jamiroquai / Seven Days In Sunny June [0:04:00.16]
05. Alanis Morissette / Crazy [0:03:38.57]
06. Moby / Beautiful [0:03:10.26]
07. Ray Lamontagne / How Come [0:04:28.01]
08. Azure Ray / Sleep [0:05:00.16]
09. DJ Colette / Feelin' Hypnotized (Black Liquid Remix) [0:04:55.42]
10. Mocean Worker / Tres Tres Chic [0:03:39.18]
11. David Morales with Tamra Keenan / Here I Am (Kaskade Radio Edit) [0:03:38.16]
12. Theodore Shapiro / Suite from The Devil Wears Prada [0:06:24.61]
 
Exact Audio Copy V0.99 prebeta 4 from 23. January 2008

EAC extraction logfile from 2. March 2009, 10:53

Various / The Devil Wears Prada

Used drive : HL-DT-STDVDRAM_GSA-T20N Adapter: 0 ID: 0

Read mode : SecureUtilize accurate stream : YesDefeat audio cache : YesMake use of C2 pointers : No

Read offset correction : 667Overread into Lead-In and Lead-Out : NoFill up missing offset samples with silence : YesDelete leading and trailing silent blocks : NoNull samples used in CRC calculations : YesUsed interface : Native Win32 interface for Win NT & 2000

Used output format : User Defined EncoderSelected bitrate : 768 kBit/sQuality : HighAdd ID3 tag : NoCommand line compressor : C:\Program Files\Exact Audio Copy\Flac\flac.exeAdditional command line options : -6 -V -T "ARTIST=%a" -T "TITLE=%t" -T "ALBUM=%g" -T "DATE=%y" -T "TRACKNUMBER=%n" -T "GENRE=%m" -T "COMMENT=%e" %s -o %d

TOC of the extracted CD

Track | Start | Length | Start sector | End sector --------------------------------------------------------- 1 | 0:00.00 | 5:17.06 | 0 | 23780 2 | 5:17.06 | 4:20.00 | 23781 | 43280 3 | 9:37.06 | 5:44.60 | 43281 | 69140 4 | 15:21.66 | 4:00.16 | 69141 | 87156 5 | 19:22.07 | 3:38.57 | 87157 | 103563 6 | 23:00.64 | 3:10.26 | 103564 | 117839 7 | 26:11.15 | 4:28.01 | 117840 | 137940 8 | 30:39.16 | 5:00.16 | 137941 | 160456 9 | 35:39.32 | 4:55.42 | 160457 | 182623 10 | 40:34.74 | 3:39.18 | 182624 | 199066 11 | 44:14.17 | 3:38.16 | 199067 | 215432 12 | 47:52.33 | 6:24.61 | 215433 | 244293

Range status and errors

Selected range

Filename D:\Various - The Devil Wears Prada.wav

Peak level 95.4 % Range quality 100.0 % Copy CRC AA5BA84E Copy OK

No errors occurred

AccurateRip summary

Track 1 accurately ripped (confidence 7) [A18DFC96]Track 2 accurately ripped (confidence 7) [75829CF6]Track 3 accurately ripped (confidence 7) [676B9FB7]Track 4 accurately ripped (confidence 7) [DA73F730]Track 5 accurately ripped (confidence 7) [391FD9D3]Track 6 accurately ripped (confidence 7) [742D1E11]Track 7 accurately ripped (confidence 7) [F6B7318F]Track 8 accurately ripped (confidence 7) [E23D777B]Track 9 accurately ripped (confidence 7) [35F635E9]Track 10 accurately ripped (confidence 7) [D661E8D3]Track 11 accurately ripped (confidence 7) [8D8D6922]Track 12 accurately ripped (confidence 7) [0137F8EC]

All tracks accurately ripped

End of status report


Трекер:  [ 07-Июл-2011 22:58 ]

  

Скачать .torrent

Размер .torrent файла 15 KB


Размер: 363 MB
Хэш (hash) релиза: ca7e7ebd03eb9c79a036c3ceac2515eaba839c0e

Еще никто не оставлял запись к записи скачать торрент VA - The Devil Wears Prada Дьявол носит Прада - 2006, FLAC . Будь первым!

!Обратная связь