Скачать через торрент музыку Ennio Morricone - La Piovra - 2006, FLAC бесплатно без регистрации torrent

Статистика раздачи
Размер:  793 MB   |    Зарегистрирован:  6 лет 9 месяцев   |    .torrent скачан:  55 раз   |   
Раздают:  1  
   
загрузка...
 
Автор Сообщение

Galfimbul

avatar Galfimbul


Ennio Morricone - La Piovra
Жанр: Soundtrack
Год выпуска диска: 2006
Аудио кодек: FLAC
Тип рипа: tracks+.cue
Битрейт аудио: lossless
Трэклист:
CD 1
01. Ennio Morricone - Mille Echi
02. Ennio Morricone - Ombre E Tentacoli
03. Ennio Morricone - Agguato
04. Ennio Morricone - Tentativo D'Amore
05. Ennio Morricone - Ricordo D'Infanzia
06. Ennio Morricone - Ricatto
07. Ennio Morricone - Canzone Per La Sera
08. Ennio Morricone - Groviglio Di Sospetti
09. Ennio Morricone - Notturno Per Una Citta'
10. Ennio Morricone - Morale
11. Ennio Morricone - La Morale Dell'Immorale
12. Ennio Morricone - Droga E Sangue
13. Ennio Morricone - Arresto
14. Ennio Morricone - Per An-na
15. Ennio Morricone - Ascolta
16. Ennio Morricone - Nel Covo
17. Ennio Morricone - Intimamente
18. Ennio Morricone - Esther
19. Ennio Morricone - Una Pietra Sopra
20. Ennio Morricone - Per An-na (2nd vers.)

CD 2
01. Ennio Morricone - Strana Bambina
02. Ennio Morricone - Una Pietra Sopra (2nd vers.)
03. Ennio Morricone - Intimamente (2nd vers.)
04. Ennio Morricone - Morte Di Un Giusto
05. Ennio Morricone - Troppo Tardi
06. Ennio Morricone - Concentrazione
07. Ennio Morricone - Silenzi Dopo Silenzi
08. Ennio Morricone - My Heart And I
09. Ennio Morricone - Giustizia
10. Ennio Morricone - Stazione Di Palermo
11. Ennio Morricone - Contro Tutti
12. Ennio Morricone - Giustizia (organo solo)
13. Ennio Morricone - Inizio Del Caso
14. Ennio Morricone - Tentacolare
15. Ennio Morricone - Con Tenerezza
16. Ennio Morricone - Disperatamente
17. Ennio Morricone - Serenamente
18. Ennio Morricone - Dolore Dell'anima
19. Ennio Morricone - Una Antica Storia
20. Ennio Morricone - Sacralmente (organo solo)
21. Ennio Morricone - Requiem (finale)
Доп. информация:

CD 1
Exact Audio Copy V0.99 prebeta 4 from 23. January 2008

EAC extraction logfile from 27. April 2008, 13:31

Ennio Morricone / La Piovra (CD1)

Used drive : CD-RW CDR-7S52 Adapter: 2 ID: 0

Read mode : Secure
Utilize accurate stream : Yes
Defeat audio cache : Yes
Make use of C2 pointers : No

Read offset correction : 6
Overread into Lead-In and Lead-Out : No
Fill up missing offset samples with silence : Yes
Delete leading and trailing silent blocks : No
Null samples used in CRC calculations : Yes
Used interface : Native Win32 interface for Win NT & 2000
Gap handling : Appended to previous track

Used output format : User Defined Encoder
Selected bitrate : 768 kBit/s
Quality : High
Add ID3 tag : No
Command line compressor : E:\Program Files\Exact Audio Copy 2\FLAC\FLAC.EXE
Additional command line options : -8 -V -T "ARTIST=%a" -T "TITLE=%t" -T "ALBUM=%g" -T "DATE=%y" -T "TRACKNUMBER=%n" -T "GENRE=%m" -T "COMMENT=%e" %s -o %d

TOC of the extracted CD

Track | Start | Length | Start sector | End sector
---------------------------------------------------------
1 | 0:00.00 | 3:24.38 | 0 | 15337
2 | 3:24.38 | 6:14.03 | 15338 | 43390
3 | 9:38.41 | 5:08.03 | 43391 | 66493
4 | 14:46.44 | 5:14.19 | 66494 | 90062
5 | 20:00.63 | 2:15.51 | 90063 | 100238
6 | 22:16.39 | 3:03.64 | 100239 | 114027
7 | 25:20.28 | 3:54.06 | 114028 | 131583
8 | 29:14.34 | 5:07.04 | 131584 | 154612
9 | 34:21.38 | 4:52.72 | 154613 | 176584
10 | 39:14.35 | 2:12.52 | 176585 | 186536
11 | 41:27.12 | 4:32.16 | 186537 | 206952
12 | 45:59.28 | 5:08.69 | 206953 | 230121
13 | 51:08.22 | 2:36.31 | 230122 | 241852
14 | 53:44.53 | 2:36.21 | 241853 | 253573
15 | 56:20.74 | 0:50.69 | 253574 | 257392
16 | 57:11.68 | 2:17.53 | 257393 | 267720
17 | 59:29.46 | 3:19.42 | 267721 | 282687
18 | 62:49.13 | 4:04.66 | 282688 | 301053
19 | 66:54.04 | 3:25.25 | 301054 | 316453
20 | 70:19.29 | 2:28.56 | 316454 | 327609

Track 1

Filename D:\EAC\01 - Mille Echi.wav

Pre-gap length 0:00:02.00

Peak level 79.2 %
Track quality 100.0 %
Test CRC 2A0A240A
Copy CRC 2A0A240A
Track not present in AccurateRip database
Copy OK

Track 2

Filename D:\EAC\02 - Ombre E Tentacoli.wav

Pre-gap length 0:00:02.00

Peak level 77.6 %
Track quality 100.0 %
Test CRC 1CF0B6BF
Copy CRC 1CF0B6BF
Track not present in AccurateRip database
Copy OK

Track 3

Filename D:\EAC\03 - Agguato.wav

Pre-gap length 0:00:02.00

Peak level 95.5 %
Track quality 100.0 %
Test CRC AD39C71B
Copy CRC AD39C71B
Track not present in AccurateRip database
Copy OK

Track 4

Filename D:\EAC\04 - Tentativo D'Amore.wav

Pre-gap length 0:00:02.00

Peak level 89.9 %
Track quality 100.0 %
Test CRC 24B9C70E
Copy CRC 24B9C70E
Track not present in AccurateRip database
Copy OK

Track 5

Filename D:\EAC\05 - Ricordo D'Infanzia.wav

Pre-gap length 0:00:02.00

Peak level 82.3 %
Track quality 100.0 %
Test CRC E38E6D25
Copy CRC E38E6D25
Track not present in AccurateRip database
Copy OK

Track 6

Filename D:\EAC\06 - Ricatto.wav

Pre-gap length 0:00:02.00

Peak level 91.3 %
Track quality 100.0 %
Test CRC 227695D5
Copy CRC 227695D5
Track not present in AccurateRip database
Copy OK

Track 7

Filename D:\EAC\07 - Canzone Per La Sera.wav

Pre-gap length 0:00:02.00

Peak level 88.8 %
Track quality 99.9 %
Test CRC D23477F9
Copy CRC D23477F9
Track not present in AccurateRip database
Copy OK

Track 8

Filename D:\EAC\08 - Groviglio Di Sospetti.wav

Pre-gap length 0:00:02.00

Peak level 91.8 %
Track quality 100.0 %
Test CRC 6577D9E2
Copy CRC 6577D9E2
Track not present in AccurateRip database
Copy OK

Track 9

Filename D:\EAC\09 - Notturno Per Una Citta'.wav

Pre-gap length 0:00:02.00

Peak level 89.4 %
Track quality 100.0 %
Test CRC 3107393B
Copy CRC 3107393B
Track not present in AccurateRip database
Copy OK

Track 10

Filename D:\EAC\10 - Morale.wav

Pre-gap length 0:00:02.00

Peak level 89.4 %
Track quality 100.0 %
Test CRC 4679EF61
Copy CRC 4679EF61
Track not present in AccurateRip database
Copy OK

Track 11

Filename D:\EAC\11 - La Morale Dell'Immorale.wav

Pre-gap length 0:00:02.00

Peak level 95.5 %
Track quality 100.0 %
Test CRC 19D272A4
Copy CRC 19D272A4
Track not present in AccurateRip database
Copy OK

Track 12

Filename D:\EAC\12 - Droga E Sangue.wav

Pre-gap length 0:00:02.00

Peak level 87.4 %
Track quality 100.0 %
Test CRC EA68EB07
Copy CRC EA68EB07
Track not present in AccurateRip database
Copy OK

Track 13

Filename D:\EAC\13 - Arresto.wav

Pre-gap length 0:00:02.00

Peak level 99.6 %
Track quality 99.9 %
Test CRC A2B33806
Copy CRC A2B33806
Track not present in AccurateRip database
Copy OK

Track 14

Filename D:\EAC\14 - Per An-na.wav

Pre-gap length 0:00:02.00

Peak level 69.7 %
Track quality 100.0 %
Test CRC 1C471986
Copy CRC 1C471986
Track not present in AccurateRip database
Copy OK

Track 15

Filename D:\EAC\15 - Ascolta.wav

Pre-gap length 0:00:02.00

Peak level 44.7 %
Track quality 100.0 %
Test CRC A0EE22A1
Copy CRC A0EE22A1
Track not present in AccurateRip database
Copy OK

Track 16

Filename D:\EAC\16 - Nel Covo.wav

Pre-gap length 0:00:02.00

Peak level 73.7 %
Track quality 100.0 %
Test CRC 05EA9F8B
Copy CRC 05EA9F8B
Track not present in AccurateRip database
Copy OK

Track 17

Filename D:\EAC\17 - Intimamente.wav

Pre-gap length 0:00:02.00

Peak level 57.8 %
Track quality 99.9 %
Test CRC DBA5C168
Copy CRC DBA5C168
Track not present in AccurateRip database
Copy OK

Track 18

Filename D:\EAC\18 - Esther.wav

Pre-gap length 0:00:02.00

Peak level 61.2 %
Track quality 100.0 %
Test CRC E2E417A0
Copy CRC E2E417A0
Track not present in AccurateRip database
Copy OK

Track 19

Filename D:\EAC\19 - Una Pietra Sopra.wav

Pre-gap length 0:00:02.00

Peak level 61.9 %
Track quality 100.0 %
Test CRC D967EB8B
Copy CRC D967EB8B
Track not present in AccurateRip database
Copy OK

Track 20

Filename D:\EAC\20 - Per An-na (2nd vers.).wav

Pre-gap length 0:00:02.00

Peak level 68.2 %
Track quality 99.9 %
Test CRC 468462C9
Copy CRC 468462C9
Track not present in AccurateRip database
Copy OK

None of the tracks are present in the AccurateRip database

No errors occurred

End of status report
CD 2
Exact Audio Copy V0.99 prebeta 4 from 23. January 2008

EAC extraction logfile from 27. April 2008, 15:49

Ennio Morricone / La Piovra (CD2)

Used drive : CD-RW CDR-7S52 Adapter: 2 ID: 0

Read mode : Secure
Utilize accurate stream : Yes
Defeat audio cache : Yes
Make use of C2 pointers : No

Read offset correction : 6
Overread into Lead-In and Lead-Out : No
Fill up missing offset samples with silence : Yes
Delete leading and trailing silent blocks : No
Null samples used in CRC calculations : Yes
Used interface : Native Win32 interface for Win NT & 2000
Gap handling : Appended to previous track

Used output format : User Defined Encoder
Selected bitrate : 768 kBit/s
Quality : High
Add ID3 tag : No
Command line compressor : E:\Program Files\Exact Audio Copy 2\FLAC\FLAC.EXE
Additional command line options : -8 -V -T "ARTIST=%a" -T "TITLE=%t" -T "ALBUM=%g" -T "DATE=%y" -T "TRACKNUMBER=%n" -T "GENRE=%m" -T "COMMENT=%e" %s -o %d

TOC of the extracted CD

Track | Start | Length | Start sector | End sector
---------------------------------------------------------
1 | 0:00.00 | 3:58.20 | 0 | 17869
2 | 3:58.20 | 3:24.54 | 17870 | 33223
3 | 7:22.74 | 3:18.02 | 33224 | 48075
4 | 10:41.01 | 2:07.41 | 48076 | 57641
5 | 12:48.42 | 3:25.60 | 57642 | 73076
6 | 16:14.27 | 3:21.56 | 73077 | 88207
7 | 19:36.08 | 3:32.36 | 88208 | 104143
8 | 23:08.44 | 5:14.10 | 104144 | 127703
9 | 28:22.54 | 2:44.39 | 127704 | 140042
10 | 31:07.18 | 2:32.34 | 140043 | 151476
11 | 33:39.52 | 2:41.28 | 151477 | 163579
12 | 36:21.05 | 2:34.45 | 163580 | 175174
13 | 38:55.50 | 5:36.14 | 175175 | 200388
14 | 44:31.64 | 5:04.68 | 200389 | 223256
15 | 49:36.57 | 2:24.50 | 223257 | 234106
16 | 52:01.32 | 3:56.51 | 234107 | 251857
17 | 55:58.08 | 2:19.17 | 251858 | 262299
18 | 58:17.25 | 4:29.35 | 262300 | 282509
19 | 62:46.60 | 3:17.66 | 282510 | 297350
20 | 66:04.51 | 1:38.25 | 297351 | 304725
21 | 67:43.01 | 4:22.64 | 304726 | 324439

Track 1

Filename D:\EAC\01 - Strana Bambina.wav

Pre-gap length 0:00:02.00

Peak level 77.3 %
Track quality 100.0 %
Test CRC BA854132
Copy CRC BA854132
Track not present in AccurateRip database
Copy OK

Track 2

Filename D:\EAC\02 - Una Pietra Sopra (2nd vers.).wav

Pre-gap length 0:00:02.00

Peak level 99.1 %
Track quality 100.0 %
Test CRC 825435AE
Copy CRC 825435AE
Track not present in AccurateRip database
Copy OK

Track 3

Filename D:\EAC\03 - Intimamente (2nd vers.).wav

Pre-gap length 0:00:02.00

Peak level 75.8 %
Track quality 100.0 %
Test CRC F4B3C879
Copy CRC F4B3C879
Track not present in AccurateRip database
Copy OK

Track 4

Filename D:\EAC\04 - Morte Di Un Giusto.wav

Pre-gap length 0:00:02.00

Peak level 99.6 %
Track quality 100.0 %
Test CRC 3791C2BF
Copy CRC 3791C2BF
Track not present in AccurateRip database
Copy OK

Track 5

Filename D:\EAC\05 - Troppo Tardi.wav

Pre-gap length 0:00:02.00

Peak level 83.0 %
Track quality 100.0 %
Test CRC 7A09F115
Copy CRC 7A09F115
Track not present in AccurateRip database
Copy OK

Track 6

Filename D:\EAC\06 - Concentrazione.wav

Pre-gap length 0:00:02.00

Peak level 83.6 %
Track quality 100.0 %
Test CRC 5A41ED89
Copy CRC 5A41ED89
Track not present in AccurateRip database
Copy OK

Track 7

Filename D:\EAC\07 - Silenzi Dopo Silenzi.wav

Pre-gap length 0:00:02.00

Peak level 83.6 %
Track quality 100.0 %
Test CRC 997B216E
Copy CRC 997B216E
Track not present in AccurateRip database
Copy OK

Track 8

Filename D:\EAC\08 - My Heart And I.wav

Pre-gap length 0:00:02.00

Peak level 46.4 %
Track quality 99.9 %
Test CRC 86EA2015
Copy CRC 86EA2015
Track not present in AccurateRip database
Copy OK

Track 9

Filename D:\EAC\09 - Giustizia.wav

Pre-gap length 0:00:02.00

Peak level 79.0 %
Track quality 100.0 %
Test CRC FAB2D371
Copy CRC FAB2D371
Track not present in AccurateRip database
Copy OK

Track 10

Filename D:\EAC\10 - Stazione Di Palermo.wav

Pre-gap length 0:00:02.00

Peak level 87.0 %
Track quality 100.0 %
Test CRC C7AA70B3
Copy CRC C7AA70B3
Track not present in AccurateRip database
Copy OK

Track 11

Filename D:\EAC\11 - Contro Tutti.wav

Pre-gap length 0:00:02.00

Peak level 86.2 %
Track quality 99.9 %
Test CRC 7ABF8F8C
Copy CRC 7ABF8F8C
Track not present in AccurateRip database
Copy OK

Track 12

Filename D:\EAC\12 - Giustizia (organo solo).wav

Pre-gap length 0:00:02.00

Peak level 71.0 %
Track quality 100.0 %
Test CRC B1B5E816
Copy CRC B1B5E816
Track not present in AccurateRip database
Copy OK

Track 13

Filename D:\EAC\13 - Inizio Del Caso.wav

Pre-gap length 0:00:02.00

Peak level 100.0 %
Track quality 100.0 %
Test CRC 2A474F69
Copy CRC 2A474F69
Track not present in AccurateRip database
Copy OK

Track 14

Filename D:\EAC\14 - Tentacolare.wav

Pre-gap length 0:00:02.00

Peak level 51.2 %
Track quality 100.0 %
Test CRC 372CC3E1
Copy CRC 372CC3E1
Track not present in AccurateRip database
Copy OK

Track 15

Filename D:\EAC\15 - Con Tenerezza.wav

Pre-gap length 0:00:02.00

Peak level 39.0 %
Track quality 100.0 %
Test CRC 5AFF9D08
Copy CRC 5AFF9D08
Track not present in AccurateRip database
Copy OK

Track 16

Filename D:\EAC\16 - Disperatamente.wav

Pre-gap length 0:00:02.00

Peak level 100.0 %
Track quality 100.0 %
Test CRC 51829F1D
Copy CRC 51829F1D
Track not present in AccurateRip database
Copy OK

Track 17

Filename D:\EAC\17 - Serenamente.wav

Pre-gap length 0:00:02.00

Peak level 100.0 %
Track quality 100.0 %
Test CRC 0168A1B1
Copy CRC 0168A1B1
Track not present in AccurateRip database
Copy OK

Track 18

Filename D:\EAC\18 - Dolore Dell'anima.wav

Pre-gap length 0:00:02.00

Peak level 100.0 %
Track quality 100.0 %
Test CRC B4CA6B33
Copy CRC B4CA6B33
Track not present in AccurateRip database
Copy OK

Track 19

Filename D:\EAC\19 - Una Antica Storia.wav

Pre-gap length 0:00:02.00

Peak level 87.4 %
Track quality 99.9 %
Test CRC 56668CC8
Copy CRC 56668CC8
Track not present in AccurateRip database
Copy OK

Track 20

Filename D:\EAC\20 - Sacralmente (organo solo).wav

Pre-gap length 0:00:02.00

Peak level 59.4 %
Track quality 100.0 %
Test CRC 22B2D247
Copy CRC 22B2D247
Track not present in AccurateRip database
Copy OK

Track 21

Filename D:\EAC\21 - Requiem (finale).wav

Pre-gap length 0:00:02.00

Peak level 100.0 %
Track quality 100.0 %
Test CRC F470B3A4
Copy CRC F470B3A4
Track not present in AccurateRip database
Copy OK

None of the tracks are present in the AccurateRip database

No errors occurred

End of status report
Что и говорить - шикарный подарок для ценителей - на мой взгляд лучшее, что было создано Эннио Морриконе! Наслаждайтесь!
Источник - e2dk

Трекер:  [ 07-Июл-2011 23:20 ]

  

Скачать .torrent

Размер .torrent файла 19 KB


Размер: 793 MB
Хэш (hash) релиза: cd44ea68a961aed721c5816586cd44c42b2b0623

Еще никто не оставлял запись к записи скачать торрент Ennio Morricone - La Piovra - 2006, FLAC . Будь первым!

!Обратная связь