Скачать через торрент музыку Шербургские зонтики Les Parapluies De Cherbourg бесплатно без регистрации torrent

Статистика раздачи
Размер:  666 MB   |    Зарегистрирован:  7 лет 2 месяца   |    .torrent скачан:  75 раз   |   
Раздают:  1  
   
загрузка...
 
Автор Сообщение

AqvaGen


Шербургские зонтики / Les Parapluies De Cherbourg

Жанр: Score
Год выпуска диска: 1996
Производитель диска: Франция
Аудио кодек: FLAC
Тип рипа: tracks+.cue
Битрейт аудио: lossless
Продолжительность: 01:57:00
Источник: HQSHARE.net
1. Generique
2. Scene du garage
3. Devant le magasin
4. Chez Tante Elise
5. Dans la rue
6. Au dancing
7. Sur le quai
8. Dans le magasin de parapluies
9. Chez Dubourg, le joaillier
10. Dans le magasin
11. Devant le garage
12. Chez Elise
13. A l'appartement
14. Adieux a Elise
15. La gare (Guy s'en va)
1. Dans le magasin
2. Le diner
3. Recit de Cassard
4. La lettre de Guy
5. Le carnaval
6. Le mariage
7. Retour de Guy
8. Chez Elise
9. Le garage (dispute)
10. Guy au cafe
11. La boite a matelots
12. Duo Guy - Madeleine
13. La terrasse du cafe
14. La station-service
15. Final
16. Watch What Happens
17. I Will Wait For You
18. Chez Dubourg, le joaillier
19. Chez Tante Elise
20. Recit de Cassard
21. I Will Wait For You
 
EAC extraction logfile from 6. January 2008, 16:31 for CDMichel Legrand / Les Parapluies de Cherbourg

Used drive : PLEXTOR CD-R PREMIUM2 Adapter: 1 ID: 1Read mode : Secure with NO C2, accurate stream, disable cacheRead offset correction : 30Overread into Lead-In and Lead-Out : No

Used output format : C:\Programmi\Eac\flac.exe (User Defined Encoder) 32 kBit/s Additional command line options : -8 -V -T "artist=%a" -T "title=%t" -T "album=%g" -T "date=%y" -T "tracknumber=%n" -T "genre=%m" -T "comment=Exact Audio Copy 0.95b4, Flac 1.1.4.a -8" %s

Other options : Fill up missing offset samples with silence : Yes Delete leading and trailing silent blocks : No Installed external ASPI interface

Track 1 Filename C:\Eac\Michel Legrand - Les Parapluies de Cherbourg (1963) [FLAC]\Disc 1\01 - Generique.wav

Pre-gap length 0:00:02.42

Peak level 61.3 % Track quality 100.0 % Test CRC 7167664E Copy CRC 7167664E Copy OK

Track 2 Filename C:\Eac\Michel Legrand - Les Parapluies de Cherbourg (1963) [FLAC]\Disc 1\02 - Scene du Garage.wav

Peak level 92.4 % Track quality 100.0 % Test CRC 9412C4F0 Copy CRC 9412C4F0 Copy OK

Track 3 Filename C:\Eac\Michel Legrand - Les Parapluies de Cherbourg (1963) [FLAC]\Disc 1\03 - Devant le Magasin.wav

Peak level 77.6 % Track quality 100.0 % Test CRC 0517A2FB Copy CRC 0517A2FB Copy OK

Track 4 Filename C:\Eac\Michel Legrand - Les Parapluies de Cherbourg (1963) [FLAC]\Disc 1\04 - Chez Tante Elise.wav

Peak level 80.1 % Track quality 100.0 % Test CRC FFC35953 Copy CRC FFC35953 Copy OK

Track 5 Filename C:\Eac\Michel Legrand - Les Parapluies de Cherbourg (1963) [FLAC]\Disc 1\05 - Dans la Rue.wav

Peak level 65.6 % Track quality 100.0 % Test CRC 20B03A68 Copy CRC 20B03A68 Copy OK

Track 6 Filename C:\Eac\Michel Legrand - Les Parapluies de Cherbourg (1963) [FLAC]\Disc 1\06 - Au Dancing.wav

Peak level 93.0 % Track quality 100.0 % Test CRC 36B1D43C Copy CRC 36B1D43C Copy OK

Track 7 Filename C:\Eac\Michel Legrand - Les Parapluies de Cherbourg (1963) [FLAC]\Disc 1\07 - Sur le Quali.wav

Peak level 83.8 % Track quality 100.0 % Test CRC 0B849134 Copy CRC 0B849134 Copy OK

Track 8 Filename C:\Eac\Michel Legrand - Les Parapluies de Cherbourg (1963) [FLAC]\Disc 1\08 - Dans le Magasin de Parapluies.wav

Peak level 92.0 % Track quality 100.0 % Test CRC A9E7744A Copy CRC A9E7744A Copy OK

Track 9 Filename C:\Eac\Michel Legrand - Les Parapluies de Cherbourg (1963) [FLAC]\Disc 1\09 - Chez Dubourg, le Joaillier.wav

Peak level 93.5 % Track quality 100.0 % Test CRC 5BB89CB4 Copy CRC 5BB89CB4 Copy OK

Track 10 Filename C:\Eac\Michel Legrand - Les Parapluies de Cherbourg (1963) [FLAC]\Disc 1\10 - Dans le Magasin.wav

Peak level 97.4 % Track quality 100.0 % Test CRC ABB26E14 Copy CRC ABB26E14 Copy OK

Track 11 Filename C:\Eac\Michel Legrand - Les Parapluies de Cherbourg (1963) [FLAC]\Disc 1\11 - Devant le Garage.wav

Peak level 97.6 % Track quality 100.0 % Test CRC 189FE656 Copy CRC 189FE656 Copy OK

Track 12 Filename C:\Eac\Michel Legrand - Les Parapluies de Cherbourg (1963) [FLAC]\Disc 1\12 - Chez Elise.wav

Peak level 96.9 % Track quality 100.0 % Test CRC 43B9D673 Copy CRC 43B9D673 Copy OK

Track 13 Filename C:\Eac\Michel Legrand - Les Parapluies de Cherbourg (1963) [FLAC]\Disc 1\13 - A L'Appartement.wav

Peak level 94.1 % Track quality 100.0 % Test CRC 52A1842F Copy CRC 52A1842F Copy OK

Track 14 Filename C:\Eac\Michel Legrand - Les Parapluies de Cherbourg (1963) [FLAC]\Disc 1\14 - Adieux a Elise.wav

Peak level 87.1 % Track quality 100.0 % Test CRC 62FFC1F8 Copy CRC 62FFC1F8 Copy OK

Track 15 Filename C:\Eac\Michel Legrand - Les Parapluies de Cherbourg (1963) [FLAC]\Disc 1\15 - La Gare (Guy S'En Van).wav

Peak level 95.5 % Track quality 100.0 % Test CRC 3F2B90E7 Copy CRC 3F2B90E7 Copy OK

No errors occured

End of status report
 
EAC extraction logfile from 6. January 2008, 17:14 for CDMichel Legrand / Les Parapluies de Cherbourg [Sony]

Used drive : PLEXTOR CD-R PREMIUM2 Adapter: 1 ID: 1Read mode : Secure with NO C2, accurate stream, disable cacheRead offset correction : 30Overread into Lead-In and Lead-Out : No

Used output format : C:\Programmi\Eac\flac.exe (User Defined Encoder) 32 kBit/s Additional command line options : -8 -V -T "artist=%a" -T "title=%t" -T "album=%g" -T "date=%y" -T "tracknumber=%n" -T "genre=%m" -T "comment=Exact Audio Copy 0.95b4, Flac 1.1.4.a -8" %s

Other options : Fill up missing offset samples with silence : Yes Delete leading and trailing silent blocks : No Installed external ASPI interface

Track 1 Filename C:\Eac\Michel Legrand - Les Parapluies de Cherbourg (1963) [FLAC]\Disc 2\01 - Dans le Magasin.wav

Pre-gap length 0:00:02.42

Peak level 91.5 % Track quality 100.0 % Test CRC 1DE5FE29 Copy CRC 1DE5FE29 Copy OK

Track 2 Filename C:\Eac\Michel Legrand - Les Parapluies de Cherbourg (1963) [FLAC]\Disc 2\02 - Le Diner.wav

Peak level 82.5 % Track quality 100.0 % Test CRC F00B7EE2 Copy CRC F00B7EE2 Copy OK

Track 3 Filename C:\Eac\Michel Legrand - Les Parapluies de Cherbourg (1963) [FLAC]\Disc 2\03 - Recit de Cassard.wav

Peak level 84.5 % Track quality 100.0 % Test CRC FDE376EB Copy CRC FDE376EB Copy OK

Track 4 Filename C:\Eac\Michel Legrand - Les Parapluies de Cherbourg (1963) [FLAC]\Disc 2\04 - La Lettre de Guy.wav

Peak level 93.8 % Track quality 100.0 % Test CRC E30CBD2B Copy CRC E30CBD2B Copy OK

Track 5 Filename C:\Eac\Michel Legrand - Les Parapluies de Cherbourg (1963) [FLAC]\Disc 2\05 - Le Carnaval.wav

Peak level 91.6 % Track quality 100.0 % Test CRC 1EC275D3 Copy CRC 1EC275D3 Copy OK

Track 6 Filename C:\Eac\Michel Legrand - Les Parapluies de Cherbourg (1963) [FLAC]\Disc 2\06 - Le Mariage.wav

Peak level 80.7 % Track quality 100.0 % Test CRC 3B6D26D9 Copy CRC 3B6D26D9 Copy OK

Track 7 Filename C:\Eac\Michel Legrand - Les Parapluies de Cherbourg (1963) [FLAC]\Disc 2\07 - Retour de Guy.wav

Pre-gap length 0:00:00.60

Peak level 67.7 % Track quality 100.0 % Test CRC 75932470 Copy CRC 75932470 Copy OK

Track 8 Filename C:\Eac\Michel Legrand - Les Parapluies de Cherbourg (1963) [FLAC]\Disc 2\08 - Chez Elise.wav

Peak level 89.6 % Track quality 100.0 % Test CRC 72C14321 Copy CRC 72C14321 Copy OK

Track 9 Filename C:\Eac\Michel Legrand - Les Parapluies de Cherbourg (1963) [FLAC]\Disc 2\09 - Le Garage (Dispute).wav

Peak level 90.2 % Track quality 100.0 % Test CRC 847A4FC0 Copy CRC 847A4FC0 Copy OK

Track 10 Filename C:\Eac\Michel Legrand - Les Parapluies de Cherbourg (1963) [FLAC]\Disc 2\10 - Guy au Cafe.wav

Peak level 73.7 % Track quality 100.0 % Test CRC 5A4FE0EA Copy CRC 5A4FE0EA Copy OK

Track 11 Filename C:\Eac\Michel Legrand - Les Parapluies de Cherbourg (1963) [FLAC]\Disc 2\11 - La Boite a Matelots.wav

Peak level 87.8 % Track quality 99.9 % Test CRC 7725839A Copy CRC 7725839A Copy OK

Track 12 Filename C:\Eac\Michel Legrand - Les Parapluies de Cherbourg (1963) [FLAC]\Disc 2\12 - Duo Guy,Madeleine.wav

Peak level 84.3 % Track quality 100.0 % Test CRC EF46A583 Copy CRC EF46A583 Copy OK

Track 13 Filename C:\Eac\Michel Legrand - Les Parapluies de Cherbourg (1963) [FLAC]\Disc 2\13 - La Terrasse du Cafe.wav

Peak level 88.3 % Track quality 99.9 % Test CRC 6A2B66B6 Copy CRC 6A2B66B6 Copy OK

Track 14 Filename C:\Eac\Michel Legrand - Les Parapluies de Cherbourg (1963) [FLAC]\Disc 2\14 - La Station-Service.wav

Peak level 80.2 % Track quality 100.0 % Test CRC 24207B7A Copy CRC 24207B7A Copy OK

Track 15 Filename C:\Eac\Michel Legrand - Les Parapluies de Cherbourg (1963) [FLAC]\Disc 2\15 - Final.wav

Peak level 94.2 % Track quality 100.0 % Test CRC 19E3AAA1 Copy CRC 19E3AAA1 Copy OK

Track 16 Filename C:\Eac\Michel Legrand - Les Parapluies de Cherbourg (1963) [FLAC]\Disc 2\16 - Watch What Happens.wav

Pre-gap length 0:00:02.46

Peak level 96.1 % Track quality 100.0 % Test CRC 24202119 Copy CRC 24202119 Copy OK

Track 17 Filename C:\Eac\Michel Legrand - Les Parapluies de Cherbourg (1963) [FLAC]\Disc 2\17 - I Will Wait for You (Je Ne Pourrai Jamais Vivre Sans Toi).wav

Pre-gap length 0:00:00.49

Peak level 99.2 % Track quality 100.0 % Test CRC BC7467E4 Copy CRC BC7467E4 Copy OK

Track 18 Filename C:\Eac\Michel Legrand - Les Parapluies de Cherbourg (1963) [FLAC]\Disc 2\18 - Chez Dubourg, le Joaillier.wav

Pre-gap length 0:00:01.66

Peak level 100.0 % Track quality 100.0 % Test CRC 9AA36FD5 Copy CRC 9AA36FD5 Copy OK

Track 19 Filename C:\Eac\Michel Legrand - Les Parapluies de Cherbourg (1963) [FLAC]\Disc 2\19 - Chez Tante Elise.wav

Peak level 97.2 % Track quality 99.9 % Test CRC 506F87E6 Copy CRC 506F87E6 Copy OK

Track 20 Filename C:\Eac\Michel Legrand - Les Parapluies de Cherbourg (1963) [FLAC]\Disc 2\20 - Recit de Cassard.wav

Pre-gap length 0:00:01.66

Peak level 99.9 % Track quality 100.0 % Test CRC C9ADE904 Copy CRC C9ADE904 Copy OK

Track 21 Filename C:\Eac\Michel Legrand - Les Parapluies de Cherbourg (1963) [FLAC]\Disc 2\21 - I Will Wait for You (Je Ne Pourrai Jamais Vivre Sans Toi).wav

Pre-gap length 0:00:01.04

Peak level 88.1 % Track quality 99.9 % Test CRC 09BA5B38 Copy CRC 09BA5B38 Copy OK

No errors occured

End of status report
 
REM GENRE SoundtrackREM DATE 1963REM DISCID BC09810FREM COMMENT "ExactAudioCopy v0.95b4"CATALOG 0000000000000PERFORMER "Michel Legrand"TITLE "Les Parapluies de Cherbourg "FILE "01 - Generique.wav" WAVE TRACK 01 AUDIO TITLE "Generique" PERFORMER "Michel Legrand" PREGAP 00:00:32 INDEX 01 00:00:00FILE "02 - Scene du Garage.wav" WAVE TRACK 02 AUDIO TITLE "Scene du Garage" PERFORMER "Michel Legrand" INDEX 01 00:00:00FILE "03 - Devant le Magasin.wav" WAVE TRACK 03 AUDIO TITLE "Devant le Magasin" PERFORMER "Michel Legrand" INDEX 01 00:00:00FILE "04 - Chez Tante Elise.wav" WAVE TRACK 04 AUDIO TITLE "Chez Tante Elise" PERFORMER "Michel Legrand" INDEX 01 00:00:00FILE "05 - Dans la Rue.wav" WAVE TRACK 05 AUDIO TITLE "Dans la Rue" PERFORMER "Michel Legrand" INDEX 01 00:00:00FILE "06 - Au Dancing.wav" WAVE TRACK 06 AUDIO TITLE "Au Dancing" PERFORMER "Michel Legrand" INDEX 01 00:00:00FILE "07 - Sur le Quali.wav" WAVE TRACK 07 AUDIO TITLE "Sur le Quali" PERFORMER "Michel Legrand" INDEX 01 00:00:00FILE "08 - Dans le Magasin de Parapluies.wav" WAVE TRACK 08 AUDIO TITLE "Dans le Magasin de Parapluies" PERFORMER "Michel Legrand" INDEX 01 00:00:00FILE "09 - Chez Dubourg, le Joaillier.wav" WAVE TRACK 09 AUDIO TITLE "Chez Dubourg, le Joaillier" PERFORMER "Michel Legrand" INDEX 01 00:00:00FILE "10 - Dans le Magasin.wav" WAVE TRACK 10 AUDIO TITLE "Dans le Magasin" PERFORMER "Michel Legrand" INDEX 01 00:00:00FILE "11 - Devant le Garage.wav" WAVE TRACK 11 AUDIO TITLE "Devant le Garage" PERFORMER "Michel Legrand" INDEX 01 00:00:00FILE "12 - Chez Elise.wav" WAVE TRACK 12 AUDIO TITLE "Chez Elise" PERFORMER "Michel Legrand" INDEX 01 00:00:00FILE "13 - A L'Appartement.wav" WAVE TRACK 13 AUDIO TITLE "A L'Appartement" PERFORMER "Michel Legrand" INDEX 01 00:00:00FILE "14 - Adieux a Elise.wav" WAVE TRACK 14 AUDIO TITLE "Adieux a Elise" PERFORMER "Michel Legrand" INDEX 01 00:00:00FILE "15 - La Gare (Guy S'En Van).wav" WAVE TRACK 15 AUDIO TITLE "La Gare (Guy S'En Van)" PERFORMER "Michel Legrand" INDEX 01 00:00:00
 
REM GENRE SoundtrackREM DATE 1963REM DISCID 5111FD15REM COMMENT "ExactAudioCopy v0.95b4"CATALOG 0000000000000PERFORMER "Michel Legrand"TITLE "Les Parapluies de Cherbourg [Sony]"FILE "01 - Dans le Magasin.wav" WAVE TRACK 01 AUDIO TITLE "Dans le Magasin" PERFORMER "Michel Legrand" PREGAP 00:00:32 INDEX 01 00:00:00FILE "02 - Le Diner.wav" WAVE TRACK 02 AUDIO TITLE "Le Diner" PERFORMER "Michel Legrand" INDEX 01 00:00:00FILE "03 - Recit de Cassard.wav" WAVE TRACK 03 AUDIO TITLE "Recit de Cassard" PERFORMER "Michel Legrand" INDEX 01 00:00:00FILE "04 - La Lettre de Guy.wav" WAVE TRACK 04 AUDIO TITLE "La Lettre de Guy" PERFORMER "Michel Legrand" INDEX 01 00:00:00FILE "05 - Le Carnaval.wav" WAVE TRACK 05 AUDIO TITLE "Le Carnaval" PERFORMER "Michel Legrand" INDEX 01 00:00:00FILE "06 - Le Mariage.wav" WAVE TRACK 06 AUDIO TITLE "Le Mariage" PERFORMER "Michel Legrand" INDEX 01 00:00:00 TRACK 07 AUDIO TITLE "Retour de Guy" PERFORMER "Michel Legrand" INDEX 00 01:03:25FILE "07 - Retour de Guy.wav" WAVE INDEX 01 00:00:00FILE "08 - Chez Elise.wav" WAVE TRACK 08 AUDIO TITLE "Chez Elise" PERFORMER "Michel Legrand" INDEX 01 00:00:00FILE "09 - Le Garage (Dispute).wav" WAVE TRACK 09 AUDIO TITLE "Le Garage (Dispute)" PERFORMER "Michel Legrand" INDEX 01 00:00:00FILE "10 - Guy au Cafe.wav" WAVE TRACK 10 AUDIO TITLE "Guy au Cafe" PERFORMER "Michel Legrand" INDEX 01 00:00:00FILE "11 - La Boite a Matelots.wav" WAVE TRACK 11 AUDIO TITLE "La Boite a Matelots" PERFORMER "Michel Legrand" INDEX 01 00:00:00FILE "12 - Duo Guy,Madeleine.wav" WAVE TRACK 12 AUDIO TITLE "Duo Guy/Madeleine" PERFORMER "Michel Legrand" INDEX 01 00:00:00FILE "13 - La Terrasse du Cafe.wav" WAVE TRACK 13 AUDIO TITLE "La Terrasse du Cafe" PERFORMER "Michel Legrand" INDEX 01 00:00:00FILE "14 - La Station-Service.wav" WAVE TRACK 14 AUDIO TITLE "La Station-Service" PERFORMER "Michel Legrand" INDEX 01 00:00:00FILE "15 - Final.wav" WAVE TRACK 15 AUDIO TITLE "Final" PERFORMER "Michel Legrand" INDEX 01 00:00:00 TRACK 16 AUDIO TITLE "Watch What Happens" PERFORMER "Michel Legrand" INDEX 00 05:00:60FILE "16 - Watch What Happens.wav" WAVE INDEX 01 00:00:00 TRACK 17 AUDIO TITLE "I Will Wait for You (Je Ne Pourrai Jamais Vivre Sans Toi)" PERFORMER "Michel Legrand" INDEX 00 02:58:03FILE "17 - I Will Wait for You (Je Ne Pourrai Jamais Vivre Sans Toi).wav" WAVE INDEX 01 00:00:00 TRACK 18 AUDIO TITLE "Chez Dubourg, le Joaillier" PERFORMER "Michel Legrand" INDEX 00 07:47:45FILE "18 - Chez Dubourg, le Joaillier.wav" WAVE INDEX 01 00:00:00FILE "19 - Chez Tante Elise.wav" WAVE TRACK 19 AUDIO TITLE "Chez Tante Elise" PERFORMER "Michel Legrand" INDEX 01 00:00:00 TRACK 20 AUDIO TITLE "Recit de Cassard" PERFORMER "Michel Legrand" INDEX 00 03:05:22FILE "20 - Recit de Cassard.wav" WAVE INDEX 01 00:00:00 TRACK 21 AUDIO TITLE "I Will Wait for You (Je Ne Pourrai Jamais Vivre Sans Toi)" PERFORMER "Michel Legrand" INDEX 00 03:19:35FILE "21 - I Will Wait for You (Je Ne Pourrai Jamais Vivre Sans Toi).wav" WAVE INDEX 01 00:00:00
Доп. информация: Включены сканы буклета и дисков

Трекер:  [ 09-Фев-2011 15:40 ]

  

Скачать .torrent

Размер .torrent файла 17 KB


Размер: 666 MB
Хэш (hash) релиза: b3d2214a60a7897fee46a06d60c7c35584bacd53

Торренты, похожие на Шербургские зонтики Les Parapluies De Cherbourg скачать торрент

Форум Название Автор Размер S L Добавлен
Саундтреки к фильмам и мультфильмам (mp3) ·· (Score) Шербургские зонтики / Les Parapluies De Cherbourg (2 CD) - Michel Legrand - 1996 (1964), MP3 (tracks), VBR~206 kbps Солнышко 183341257175 MB 0 0 1292265599

21:39

13-Дек-10

Саундтреки к фильмам и мультфильмам (lossless) ·· (Score) Les Parapluies De Cherbourg / Шербургские зонтики (Michel Legrand) - 1964, APE (image+.cue), lossless Galfimbul 351100441335 MB 0 0 1292268810

22:33

13-Дек-10

bot

Топик был перенесен в форум Саундтреки к фильмам и мультфильмам (lossless)

Перенес AqvaGen

Хотите добавить комментарий к записи скачать торрент Шербургские зонтики Les Parapluies De Cherbourg

!Обратная связь