Скачать через торрент музыку Music From Scrubs Клиника - 2001, FLAC бесплатно без регистрации torrent

Статистика раздачи
Размер:  342 MB   |    Зарегистрирован:  7 лет 4 месяца   |    .torrent скачан:  108 раз   |   
Раздают:  1  
   
загрузка...
 
Автор Сообщение

AqvaGen


Music From Scrubs

Жанр: Soundtrack
Год выпуска диска: 2001
Производитель диска: Америка
Аудио кодек: FLAC
Тип рипа: tracks+.cue
Битрейт аудио: lossless
Продолжительность: 52:33
Трэклист:
01. Lazlo Bane - Superman
02. Shawn Mullins - All In My Head
03. Eels - Fresh Feeling
04. Leroy - Good Time
05. Francis Dunnery - Good Life
06. The Shins - New Slang
07. Colin Hay - Beautiful World
08. Guided By Voices - Hold On Hope
09. Nil Lara - Fighting For My Love
10. Butthole Surfers - Dracula From Houston
11. Everything - Hooch
12. John Cale - Hallelujah
13. Jeremy Kay - Have It All
14. Jan Stevens - Scrubs [End Credits]
15. Colin Hay - Overkill
 
Exact Audio Copy V0.99 prebeta 4 from 23. January 2008

EAC extraction logfile from 7. January 2009, 5:20

Various / Music From Scrubs

Used drive : TSSTcorpDVD+-RW TS-H653B Adapter: 0 ID: 0

Read mode : SecureUtilize accurate stream : YesDefeat audio cache : YesMake use of C2 pointers : No

Read offset correction : 6Overread into Lead-In and Lead-Out : NoFill up missing offset samples with silence : YesDelete leading and trailing silent blocks : NoNull samples used in CRC calculations : YesUsed interface : Native Win32 interface for Win NT & 2000Gap handling : Appended to previous track

Used output format : User Defined EncoderSelected bitrate : 192 kBit/sQuality : HighAdd ID3 tag : NoCommand line compressor : C:\Program Files\Exact Audio Copy\Flac\flac.exeAdditional command line options : -8 -A tukey(0.25) -A gauss(0.1875) -b 4096 -V -T "artist=%a" -T "title=%t" -T "album=%g" -T "date=%y" -T "tracknumber=%n" -T "genre=%m" %s

TOC of the extracted CD

Track | Start | Length | Start sector | End sector --------------------------------------------------------- 1 | 0:00.00 | 3:38.61 | 0 | 16410 2 | 3:38.61 | 3:28.61 | 16411 | 32071 3 | 7:07.47 | 3:37.39 | 32072 | 48385 4 | 10:45.11 | 3:29.41 | 48386 | 64101 5 | 14:14.52 | 3:22.57 | 64102 | 79308 6 | 17:37.34 | 3:50.64 | 79309 | 96622 7 | 21:28.23 | 4:02.52 | 96623 | 114824 8 | 25:31.00 | 3:33.05 | 114825 | 130804 9 | 29:04.05 | 4:07.71 | 130805 | 149400 10 | 33:12.01 | 3:43.57 | 149401 | 166182 11 | 36:55.58 | 3:44.68 | 166183 | 183050 12 | 40:40.51 | 4:39.44 | 183051 | 204019 13 | 45:20.20 | 3:50.57 | 204020 | 221326 14 | 49:11.02 | 0:28.60 | 221327 | 223486 15 | 49:39.62 | 2:53.54 | 223487 | 236515 16 | 55:05.41 | 0:46.59 | 247916 | 251424

Track 1

Filename C:\Documents and Settings\Administrator\Desktop\!Music\Various Artists - Music From Scrubs FLAC\01 - Lazlo Bane - Superman.wav

Pre-gap length 0:00:02.00

Peak level 96.0 % Track quality 99.9 % Test CRC 28A3C804 Copy CRC 28A3C804 Accurately ripped (confidence 8) [9FC35FF5] Copy OK

Track 2

Filename C:\Documents and Settings\Administrator\Desktop\!Music\Various Artists - Music From Scrubs FLAC\02 - Shawn Mullins - All In My Head.wav

Peak level 96.2 % Track quality 100.0 % Test CRC 20FC383E Copy CRC 20FC383E Accurately ripped (confidence 9) [6254D5D0] Copy OK

Track 3

Filename C:\Documents and Settings\Administrator\Desktop\!Music\Various Artists - Music From Scrubs FLAC\03 - Eels - Fresh Feeling.wav

Peak level 97.0 % Track quality 100.0 % Test CRC A0FC4F81 Copy CRC A0FC4F81 Accurately ripped (confidence 9) [B14E5E89] Copy OK

Track 4

Filename C:\Documents and Settings\Administrator\Desktop\!Music\Various Artists - Music From Scrubs FLAC\04 - Leroy - Good Time.wav

Peak level 92.1 % Track quality 99.9 % Test CRC BD652DAA Copy CRC BD652DAA Accurately ripped (confidence 9) [B7B018F9] Copy OK

Track 5

Filename C:\Documents and Settings\Administrator\Desktop\!Music\Various Artists - Music From Scrubs FLAC\05 - Francis Dunnery - Good Life.wav

Peak level 95.8 % Track quality 100.0 % Test CRC B2B9F30F Copy CRC B2B9F30F Accurately ripped (confidence 9) [7C0677D0] Copy OK

Track 6

Filename C:\Documents and Settings\Administrator\Desktop\!Music\Various Artists - Music From Scrubs FLAC\06 - The Shins - New Slang.wav

Peak level 95.5 % Track quality 100.0 % Test CRC 43A9666B Copy CRC 43A9666B Accurately ripped (confidence 9) [9D4FC327] Copy OK

Track 7

Filename C:\Documents and Settings\Administrator\Desktop\!Music\Various Artists - Music From Scrubs FLAC\07 - Colin Hay - Beautiful World.wav

Peak level 95.0 % Track quality 100.0 % Test CRC 33A60F2A Copy CRC 33A60F2A Accurately ripped (confidence 9) [0A70E9CF] Copy OK

Track 8

Filename C:\Documents and Settings\Administrator\Desktop\!Music\Various Artists - Music From Scrubs FLAC\08 - Guided By Voices - Hold On Hope.wav

Peak level 94.8 % Track quality 100.0 % Test CRC 2EBCE212 Copy CRC 2EBCE212 Accurately ripped (confidence 10) [16B2D60F] Copy OK

Track 9

Filename C:\Documents and Settings\Administrator\Desktop\!Music\Various Artists - Music From Scrubs FLAC\09 - Nil Lara - Fighting For My Love.wav

Peak level 96.4 % Track quality 100.0 % Test CRC 2D314E30 Copy CRC 2D314E30 Accurately ripped (confidence 10) [83CC60AF] Copy OK

Track 10

Filename C:\Documents and Settings\Administrator\Desktop\!Music\Various Artists - Music From Scrubs FLAC\10 - Butthole Surfers - Dracula From Houston.wav

Peak level 87.9 % Track quality 100.0 % Test CRC 90DD3AFB Copy CRC 90DD3AFB Accurately ripped (confidence 10) [6B41DA60] Copy OK

Track 11

Filename C:\Documents and Settings\Administrator\Desktop\!Music\Various Artists - Music From Scrubs FLAC\11 - Everything - Hooch.wav

Peak level 96.3 % Track quality 100.0 % Test CRC 7D7CB0D1 Copy CRC 7D7CB0D1 Accurately ripped (confidence 10) [8B74A0BD] Copy OK

Track 12

Filename C:\Documents and Settings\Administrator\Desktop\!Music\Various Artists - Music From Scrubs FLAC\12 - John Cale - Hallelujah.wav

Peak level 96.0 % Track quality 99.9 % Test CRC DA6B7DDE Copy CRC DA6B7DDE Accurately ripped (confidence 10) [553BD2CD] Copy OK

Track 13

Filename C:\Documents and Settings\Administrator\Desktop\!Music\Various Artists - Music From Scrubs FLAC\13 - Jeremy Kay - Have It All.wav

Peak level 95.9 % Track quality 99.9 % Test CRC AA3EDF08 Copy CRC AA3EDF08 Accurately ripped (confidence 10) [B047142A] Copy OK

Track 14

Filename C:\Documents and Settings\Administrator\Desktop\!Music\Various Artists - Music From Scrubs FLAC\14 - Jan Stevens - End Credit Score.wav

Peak level 96.3 % Track quality 100.0 % Test CRC 174470FB Copy CRC 174470FB Accurately ripped (confidence 10) [62A05EE4] Copy OK

Track 15

Filename C:\Documents and Settings\Administrator\Desktop\!Music\Various Artists - Music From Scrubs FLAC\15 - Colin Hay - Overkill.wav

Peak level 95.8 % Track quality 100.0 % Test CRC F9245200 Copy CRC F9245200 Accurately ripped (confidence 9) [8CE99BEF] Copy OK

All tracks accurately ripped

No errors occurred

End of status report


Трекер:  [ 19-Дек-2010 15:59 ]

  

Скачать .torrent

Размер .torrent файла 15 KB


Размер: 342 MB
Хэш (hash) релиза: 806294845fd3b8dd0006f99dbd041e15fc0d4e43

bot

Топик был перенесен в форум Саундтреки к фильмам и мультфильмам (lossless)

Перенес AqvaGen

Хотите добавить комментарий к записи скачать торрент Music From Scrubs Клиника - 2001, FLAC

!Обратная связь