Скачать через торрент музыку Amedeo Minghi - Prinzessin Fantaghiro бесплатно без регистрации torrent

Статистика раздачи
Размер:  312 MB   |    Зарегистрирован:  7 лет 2 месяца   |    .torrent скачан:  63 раза   |   
Раздают:  1  
   
загрузка...
 
Автор Сообщение

AqvaGen


Amedeo Minghi - Prinzessin Fantaghiro (Fantaghiro: Cave Оf The Golden Rose) / Фантагиро: Пещера Золотой Розы

Жанр: Score
Год выпуска диска: 1996
Производитель диска: Италия
Аудио кодек: FLAC
Тип рипа: tracks
Битрейт аудио: lossless
Продолжительность: 01:07:39

Трэклист:
01. Der König Im Krieg
02. Die Königin (Die Liebe, das Leid, die Reue)
03. Die Magie
04. Fantaghiro
05. Der Prinz
06. Der Ball
07. Das Duell
08. Die Einsamkeit
09. Der Prinz und Fantaghiro
10. Mein Feind
11. Tarabas Thema
12. Fantaghiro im Kampf
13. Smeralda
14. Die schwarze Hexe
15. Die Königin der Elfen
16. Romualdo und Fantaghiro
17. Die weisse Hexe
18. Die Verwandlung des Tarabas (Suite)
Exact Audio Copy V0.99 prebeta 4 from 23. January 2008

EAC extraction logfile from 14. July 2009, 17:09

Various Artists / Prinzessin Fantaghiro Die Original-Musik Der Fantasy-Serie CD2

Used drive : Optiarc DVD RW AD-7561A Adapter: 0 ID: 0

Read mode : Secure
Utilize accurate stream : Yes
Defeat audio cache : Yes
Make use of C2 pointers : No

Read offset correction : 6
Overread into Lead-In and Lead-Out : No
Fill up missing offset samples with silence : Yes
Delete leading and trailing silent blocks : No
Null samples used in CRC calculations : No
Used interface : Native Win32 interface for Win NT & 2000
Gap handling : Not detected, thus appended to previous track

Used output format : User Defined Encoder
Selected bitrate : 1024 kBit/s
Quality : High
Add ID3 tag : Yes
Command line compressor : C:\Program Files\Exact Audio Copy\FLAC\FLAC.EXE
Additional command line options : -6 -V -T "ARTIST=%a" -T "TITLE=%t" -T "ALBUM=%g" -T "DATE=%y" -T "TRACKNUMBER=%n" -T "GENRE=%m" -T "COMMENT=%e" %s -o %d

TOC of the extracted CD

Track | Start | Length | Start sector | End sector
---------------------------------------------------------
1 | 0:00.00 | 4:00.65 | 0 | 18064
2 | 4:00.65 | 5:57.50 | 18065 | 44889
3 | 9:58.40 | 3:40.32 | 44890 | 61421
4 | 13:38.72 | 2:43.53 | 61422 | 73699
5 | 16:22.50 | 2:26.15 | 73700 | 84664
6 | 18:48.65 | 6:09.57 | 84665 | 112396
7 | 24:58.47 | 2:25.73 | 112397 | 123344
8 | 27:24.45 | 2:51.65 | 123345 | 136234
9 | 30:16.35 | 2:34.27 | 136235 | 147811
10 | 32:50.62 | 3:23.53 | 147812 | 163089
11 | 36:14.40 | 4:35.25 | 163090 | 183739
12 | 40:49.65 | 1:58.50 | 183740 | 192639
13 | 42:48.40 | 3:57.17 | 192640 | 210431
14 | 46:45.57 | 2:09.05 | 210432 | 220111
15 | 48:54.62 | 4:33.30 | 220112 | 240616
16 | 53:28.17 | 2:03.73 | 240617 | 249914
17 | 55:32.15 | 2:16.02 | 249915 | 260116
18 | 57:48.17 | 9:51.25 | 260117 | 304466

Track 1

Filename C:\Users\areki.sgh\Desktop\01. Der Kцnig Im Krieg.wav

Peak level 62.9 %
Track quality 99.9 %
Copy CRC 081489C3
Accurately ripped (confidence 1) [8C161A59]
Copy OK

Track 2

Filename C:\Users\areki.sgh\Desktop\02. Die Kцnigin (Die Liebe, das Leid, die Reue).wav

Peak level 66.6 %
Track quality 99.9 %
Copy CRC 46E541C3
Accurately ripped (confidence 1) [593D6163]
Copy OK

Track 3

Filename C:\Users\areki.sgh\Desktop\03. Die Magie.wav

Peak level 52.3 %
Track quality 100.0 %
Copy CRC 3549184E
Accurately ripped (confidence 1) [5A481917]
Copy OK

Track 4

Filename C:\Users\areki.sgh\Desktop\04. Fantaghiro.wav

Peak level 62.4 %
Track quality 99.9 %
Copy CRC 4FFA873D
Accurately ripped (confidence 1) [93342B0E]
Copy OK

Track 5

Filename C:\Users\areki.sgh\Desktop\05. Der Prinz.wav

Peak level 62.2 %
Track quality 99.8 %
Copy CRC E0D68B68
Accurately ripped (confidence 1) [DDDB3D0E]
Copy OK

Track 6

Filename C:\Users\areki.sgh\Desktop\06. Der Ball.wav

Peak level 84.4 %
Track quality 99.9 %
Copy CRC 7ED1EE51
Accurately ripped (confidence 1) [D94E85B1]
Copy OK

Track 7

Filename C:\Users\areki.sgh\Desktop\07. Das Duell.wav

Peak level 99.9 %
Track quality 99.9 %
Copy CRC 35F66649
Accurately ripped (confidence 1) [F977983B]
Copy OK

Track 8

Filename C:\Users\areki.sgh\Desktop\08. Die Einsamkeit.wav

Peak level 41.4 %
Track quality 100.0 %
Copy CRC C89EFCFB
Accurately ripped (confidence 1) [9FB3D57D]
Copy OK

Track 9

Filename C:\Users\areki.sgh\Desktop\09. Der Prinz und Fantaghiro.wav

Peak level 57.4 %
Track quality 100.0 %
Copy CRC 7E8BF9B2
Accurately ripped (confidence 1) [62636D10]
Copy OK

Track 10

Filename C:\Users\areki.sgh\Desktop\10. Mein Feind.wav

Peak level 91.2 %
Track quality 100.0 %
Copy CRC B934F280
Accurately ripped (confidence 1) [95026DD4]
Copy OK

Track 11

Filename C:\Users\areki.sgh\Desktop\11. Tarabas Thema.wav

Peak level 99.0 %
Track quality 100.0 %
Copy CRC 2EA7A072
Accurately ripped (confidence 1) [E681CCDF]
Copy OK

Track 12

Filename C:\Users\areki.sgh\Desktop\12. Fantaghiro im Kampf.wav

Peak level 68.3 %
Track quality 99.9 %
Copy CRC 979735E9
Accurately ripped (confidence 1) [711D7C9C]
Copy OK

Track 13

Filename C:\Users\areki.sgh\Desktop\13. Smeralda.wav

Peak level 99.9 %
Track quality 100.0 %
Copy CRC 14255EA6
Accurately ripped (confidence 1) [4317AF5F]
Copy OK

Track 14

Filename C:\Users\areki.sgh\Desktop\14. Die schwarze Hexe.wav

Peak level 57.7 %
Track quality 100.0 %
Copy CRC 92076610
Accurately ripped (confidence 1) [2D08E936]
Copy OK

Track 15

Filename C:\Users\areki.sgh\Desktop\15. Die Kцnigin der Elfen.wav

Peak level 50.5 %
Track quality 100.0 %
Copy CRC 2094B3F2
Accurately ripped (confidence 1) [97CE1A3E]
Copy OK

Track 16

Filename C:\Users\areki.sgh\Desktop\16. Romualdo und Fantaghiro.wav

Peak level 92.4 %
Track quality 100.0 %
Copy CRC 5DAD0FA7
Accurately ripped (confidence 1) [07916AC0]
Copy OK

Track 17

Filename C:\Users\areki.sgh\Desktop\17. Die weisse Hexe.wav

Peak level 26.2 %
Track quality 100.0 %
Copy CRC 69119C00
Accurately ripped (confidence 1) [543853D3]
Copy OK

Track 18

Filename C:\Users\areki.sgh\Desktop\18. Die Verwandlung des Tarabas (Suite).wav

Peak level 89.3 %
Track quality 100.0 %
Copy CRC BACD737D
Cannot be verified as accurate (confidence 1) [C0335499], AccurateRip returned [0EA1963B]
Copy OK

17 track(s) accurately ripped
1 track(s) could not be verified as accurate

Some tracks could not be verified as accurate

No errors occurred

End of status report

------------------------------------------------------------

Exact Audio Copy V0.99 prebeta 4 from 23. January 2008

EAC extraction logfile from 14. July 2009, 17:13

Various Artists / Prinzessin Fantaghiro Die Original-Musik Der Fantasy-Serie CD2

Used drive : Optiarc DVD RW AD-7561A Adapter: 0 ID: 0

Read mode : Secure
Utilize accurate stream : Yes
Defeat audio cache : Yes
Make use of C2 pointers : No

Read offset correction : 6
Overread into Lead-In and Lead-Out : No
Fill up missing offset samples with silence : Yes
Delete leading and trailing silent blocks : No
Null samples used in CRC calculations : No
Used interface : Native Win32 interface for Win NT & 2000
Gap handling : Not detected, thus appended to previous track

Used output format : User Defined Encoder
Selected bitrate : 1024 kBit/s
Quality : High
Add ID3 tag : Yes
Command line compressor : C:\Program Files\Exact Audio Copy\FLAC\FLAC.EXE
Additional command line options : -6 -V -T "ARTIST=%a" -T "TITLE=%t" -T "ALBUM=%g" -T "DATE=%y" -T "TRACKNUMBER=%n" -T "GENRE=%m" -T "COMMENT=%e" %s -o %d

TOC of the extracted CD

Track | Start | Length | Start sector | End sector
---------------------------------------------------------
1 | 0:00.00 | 4:00.65 | 0 | 18064
2 | 4:00.65 | 5:57.50 | 18065 | 44889
3 | 9:58.40 | 3:40.32 | 44890 | 61421
4 | 13:38.72 | 2:43.53 | 61422 | 73699
5 | 16:22.50 | 2:26.15 | 73700 | 84664
6 | 18:48.65 | 6:09.57 | 84665 | 112396
7 | 24:58.47 | 2:25.73 | 112397 | 123344
8 | 27:24.45 | 2:51.65 | 123345 | 136234
9 | 30:16.35 | 2:34.27 | 136235 | 147811
10 | 32:50.62 | 3:23.53 | 147812 | 163089
11 | 36:14.40 | 4:35.25 | 163090 | 183739
12 | 40:49.65 | 1:58.50 | 183740 | 192639
13 | 42:48.40 | 3:57.17 | 192640 | 210431
14 | 46:45.57 | 2:09.05 | 210432 | 220111
15 | 48:54.62 | 4:33.30 | 220112 | 240616
16 | 53:28.17 | 2:03.73 | 240617 | 249914
17 | 55:32.15 | 2:16.02 | 249915 | 260116
18 | 57:48.17 | 9:51.25 | 260117 | 304466

Track 18

Filename C:\Users\areki.sgh\Desktop\18. Die Verwandlung des Tarabas (Suite).wav

Peak level 89.3 %
Track quality 99.9 %
Copy CRC BACD737D
Cannot be verified as accurate (confidence 1) [C0335499], AccurateRip returned [0EA1963B]
Copy OK

No tracks could be verified as accurate
You may have a different pressing from the one(s) in the database

No errors occurred

End of status report


Трекер:  [ 09-Фев-2011 15:37 ]

  

Скачать .torrent

Размер .torrent файла 13 KB


Размер: 312 MB
Хэш (hash) релиза: c87fb8b20f669d33d1c1c1b9cf6fd50e75ceeaf0

bot

Топик был перенесен в форум Саундтреки к фильмам и мультфильмам (lossless)

Перенес AqvaGen

Хотите добавить комментарий к записи скачать торрент Amedeo Minghi - Prinzessin Fantaghiro

!Обратная связь