Скачать через торрент музыку Glover Gill & Tosca Tango Orchestra - Waking Life - 2001, APE бесплатно без регистрации torrent

Статистика раздачи
Размер:  204 MB   |    Зарегистрирован:  6 лет 9 месяцев   |    .torrent скачан:  45 раз   |   
Раздают:  1  
   
загрузка...
 
Автор Сообщение

Galfimbul

avatar Galfimbul


Glover Gill & Tosca Tango Orchestra - Waking Life

Жанр: soundtrack
Год выпуска диска: 2001
Производитель диска: США
Аудио кодек: APE
Тип рипа: tracks + .cue
Битрейт аудио: lossless
Продолжительность: 43:38
Трэклист:
01. Ballade 4 part 1 (3:04)
02. Mi Otra Mitad De Naranja (5:07)
03. Pelo Negro (4:16)
04. La Cosa Pequeña (3:55)
05. Lástima Grande (2:50)
06. Nocturne In E-Flat Opus 9 #2 (Chopin) (3:59)
07. Ballade 3 (7:53)
08. El Cholulo (2:50)
09. Nocturna (3:36)
10. Super Sport (3:53)
11. Ballade 4 part 2 (2:07)
Доп. информация:
 
Exact Audio Copy V0.99 prebeta 4 from 23. January 2008

EAC extraction logfile from 19. May 2008, 19:16

Various / Waking Life: Original Motion Picture Soundtrack

Used drive : TOSHIBA ODD-DVD SD-R6372 Adapter: 1 ID: 0

Read mode : SecureUtilize accurate stream : YesDefeat audio cache : YesMake use of C2 pointers : No

Read offset correction : 116Overread into Lead-In and Lead-Out : NoFill up missing offset samples with silence : YesDelete leading and trailing silent blocks : NoNull samples used in CRC calculations : YesUsed interface : Native Win32 interface for Win NT & 2000Gap handling : Appended to previous track

Used output format : User Defined EncoderSelected bitrate : 768 kBit/sQuality : HighAdd ID3 tag : NoCommand line compressor : C:\Program Files\FLAC\flac.exeAdditional command line options : -V -8 -T "artist=%a" -T "title=%t" -T "album=%g" -T "date=%y" -T "tracknumber=%n" %s

TOC of the extracted CD

Track | Start | Length | Start sector | End sector --------------------------------------------------------- 1 | 0:00.00 | 3:04.61 | 0 | 13860 2 | 3:04.61 | 5:07.04 | 13861 | 36889 3 | 8:11.65 | 4:16.07 | 36890 | 56096 4 | 12:27.72 | 3:55.68 | 56097 | 73789 5 | 16:23.65 | 2:50.21 | 73790 | 86560 6 | 19:14.11 | 3:59.67 | 86561 | 104552 7 | 23:14.03 | 7:53.07 | 104553 | 140034 8 | 31:07.10 | 2:50.61 | 140035 | 152845 9 | 33:57.71 | 3:36.30 | 152846 | 169075 10 | 37:34.26 | 3:53.68 | 169076 | 186618 11 | 41:28.19 | 2:07.66 | 186619 | 196209

Track 1

Filename C:\Hi there RIAA, What's up IFPI\Various Artists - Waking Life; Original Motion Picture Soundtrack\01 - Ballade 4 Part 1.wav

Pre-gap length 0:00:02.00

Peak level 96.5 % Track quality 100.0 % Test CRC 6A8E22EC Copy CRC 6A8E22EC Accurately ripped (confidence 3) [61FD618C] Copy OK

Track 2

Filename C:\Hi there RIAA, What's up IFPI\Various Artists - Waking Life; Original Motion Picture Soundtrack\02 - Mi Otra Mitad De Naranja.wav

Pre-gap length 0:00:01.32

Peak level 96.5 % Track quality 100.0 % Test CRC 63565F6B Copy CRC 63565F6B Accurately ripped (confidence 3) [27E6DEF7] Copy OK

Track 3

Filename C:\Hi there RIAA, What's up IFPI\Various Artists - Waking Life; Original Motion Picture Soundtrack\03 - Pelo Negro.wav

Pre-gap length 0:00:00.65

Peak level 96.5 % Track quality 100.0 % Test CRC C5E43A20 Copy CRC C5E43A20 Accurately ripped (confidence 3) [64EB08B3] Copy OK

Track 4

Filename C:\Hi there RIAA, What's up IFPI\Various Artists - Waking Life; Original Motion Picture Soundtrack\04 - La Cosa Pequeсa.wav

Pre-gap length 0:00:01.30

Peak level 100.0 % Track quality 100.0 % Test CRC 019B766A Copy CRC 019B766A Accurately ripped (confidence 3) [1493DD1B] Copy OK

Track 5

Filename C:\Hi there RIAA, What's up IFPI\Various Artists - Waking Life; Original Motion Picture Soundtrack\05 - Lastima Grande.wav

Pre-gap length 0:00:00.73

Peak level 91.1 % Track quality 100.0 % Test CRC FE232903 Copy CRC FE232903 Accurately ripped (confidence 3) [D9FA61C6] Copy OK

Track 6

Filename C:\Hi there RIAA, What's up IFPI\Various Artists - Waking Life; Original Motion Picture Soundtrack\06 - Nocturne In E-Flat Opus 9 #2.wav

Pre-gap length 0:00:00.69

Peak level 96.5 % Track quality 100.0 % Test CRC D57AA462 Copy CRC D57AA462 Accurately ripped (confidence 3) [EFE484B2] Copy OK

Track 7

Filename C:\Hi there RIAA, What's up IFPI\Various Artists - Waking Life; Original Motion Picture Soundtrack\07 - Ballade 3.wav

Pre-gap length 0:00:01.66

Peak level 74.0 % Track quality 100.0 % Test CRC 111ABE4C Copy CRC 111ABE4C Accurately ripped (confidence 3) [AA0D5DBF] Copy OK

Track 8

Filename C:\Hi there RIAA, What's up IFPI\Various Artists - Waking Life; Original Motion Picture Soundtrack\08 - El Cholulo.wav

Pre-gap length 0:00:01.31

Peak level 76.6 % Track quality 100.0 % Test CRC 2765CA69 Copy CRC 2765CA69 Accurately ripped (confidence 3) [AA88B946] Copy OK

Track 9

Filename C:\Hi there RIAA, What's up IFPI\Various Artists - Waking Life; Original Motion Picture Soundtrack\09 - Nocturna.wav

Pre-gap length 0:00:01.33

Peak level 76.6 % Track quality 100.0 % Test CRC 041F0575 Copy CRC 041F0575 Accurately ripped (confidence 3) [D2061B51] Copy OK

Track 10

Filename C:\Hi there RIAA, What's up IFPI\Various Artists - Waking Life; Original Motion Picture Soundtrack\10 - Super Sport.wav

Pre-gap length 0:00:01.28

Peak level 76.6 % Track quality 100.0 % Test CRC 90C0E8CB Copy CRC 90C0E8CB Accurately ripped (confidence 3) [8DE2D2B8] Copy OK

Track 11

Filename C:\Hi there RIAA, What's up IFPI\Various Artists - Waking Life; Original Motion Picture Soundtrack\11 - Ballade 4 Part 2.wav

Pre-gap length 0:00:01.29

Peak level 76.6 % Track quality 100.0 % Test CRC 0323C86C Copy CRC 0323C86C Accurately ripped (confidence 3) [E667A5B0] Copy OK

All tracks accurately ripped

No errors occurred

End of status report
 
auCDtect: CD records authenticity detector, version 0.8.2Copyright (c) 2004 Oleg Berngardt. All rights reserved.Copyright (c) 2004 Alexander Djourik. All rights reserved.------------------------------------------------------------Processing file: [01 - ballade 4 part 1.wav]Data analysis: [100%]------------------------------------------------------------This track looks like CDDA with probability 100%

------------------------------------------------------------Processing file: [02 - mi otra mitad de naranja.wav]Data analysis: [100%]------------------------------------------------------------This track looks like CDDA with probability 100%

------------------------------------------------------------Processing file: [03 - pelo negro.wav]Data analysis: [100%]------------------------------------------------------------This track looks like CDDA with probability 100%

------------------------------------------------------------Processing file: [04 - la cosa pequena.wav]Data analysis: [100%]------------------------------------------------------------This track looks like CDDA with probability 100%

------------------------------------------------------------Processing file: [05 - lastima grande.wav]Data analysis: [100%]------------------------------------------------------------This track looks like CDDA with probability 100%

------------------------------------------------------------Processing file: [06 - nocturne in e-flat opus 9 #2.wav]Data analysis: [100%]------------------------------------------------------------This track looks like CDDA with probability 99%

------------------------------------------------------------Processing file: [07 - ballade 3.wav]Data analysis: [100%]------------------------------------------------------------This track looks like CDDA with probability 100%

------------------------------------------------------------Processing file: [08 - el cholulo.wav]Data analysis: [100%]------------------------------------------------------------This track looks like CDDA with probability 99%

------------------------------------------------------------Processing file: [09 - nocturna.wav]Data analysis: [100%]------------------------------------------------------------This track looks like CDDA with probability 100%

------------------------------------------------------------Processing file: [10 - super sport.wav]Data analysis: [100%]------------------------------------------------------------This track looks like CDDA with probability 100%

------------------------------------------------------------Processing file: [11 - ballade 4 part 2.wav]Data analysis: [100%]------------------------------------------------------------This track looks like CDDA with probability 100%
Рип и сканы выполнены bisonn @ soulseek. Спасибо ему огромное!

Трекер:  [ 07-Июл-2011 23:19 ]

  

Скачать .torrent

Размер .torrent файла 17 KB


Размер: 204 MB
Хэш (hash) релиза: bf1367c815f9be67bc28da328053955d0af896e1

Еще никто не оставлял запись к записи скачать торрент Glover Gill & Tosca Tango Orchestra - Waking Life - 2001, APE . Будь первым!

!Обратная связь