Скачать через торрент музыку Charlie Clouser - Resident Evil: Extinction Обитель Зла 3: Вымирание - 2007, FLAC бесплатно без регистрации torrent

Статистика раздачи
Размер:  343 MB   |    Зарегистрирован:  7 лет 11 месяцев   |    .torrent скачан:  84 раза   |   
Раздают:  1  
   
загрузка...
 
Автор Сообщение

AqvaGen


Charlie Clouser - Resident Evil: Extinction



Жанр: Score
Год выпуска диска: 2007
Производитель диска: US
Аудио кодек: FLAC
Тип рипа: tracks+.cue
Битрейт аудио: lossless
Продолжительность: 1:04:15
01. Clone Awake (0:46)
02. The Ditch (1:50)
03. Alice Ride (0:55)
04. Dog Attack (2:17)
05. To the Hive (2:35)
06. Flysolated (0:55)
07. Convoy (0:40)
08. Motel Closet (2:26)
09. Dexterity (2:01)
10. Perimeter Fire (2:53)
11. Telepathic Sense (1:39)
12. Desert Walk (1:09)
13. Birds Attack (4:46)
14. Choose Sides (2:12)
15. Carlos Hug (2:35)
16. Positive ID (2:28)
17. For Alaska (2:57)
18. New Orders (2:25)
19. Vegas Journal (0:42)
20. Container (2:29)
21. Open Box (1:49)
22. Losing Texan (1:35)
23. To Tent (2:00)
24. Tentacles (1:22)
25. Carlos Plan (2:25)
26. Tanker Truck (2:48)
27. Others Gone (1:06)
28. Elevator (1:12)
29. Your Blood (2:04)
30. Clone Bubble (1:23)
31. Alice Pic (0:45)
32. Isaacs Dead (2:45)
33. Laser Tunnel (0:25)
34. New Headquarters (1:54)
 
Exact Audio Copy V0.99 prebeta 5 from 4. May 2009

EAC extraction logfile from 4. February 2010, 21:58

Charlie Clouser / Resident Evil: Extinction (Score)

Used drive : TSSTcorpCDDVDW SE-S224Q Adapter: 3 ID: 0

Read mode : SecureUtilize accurate stream : YesDefeat audio cache : YesMake use of C2 pointers : No

Read offset correction : 6Overread into Lead-In and Lead-Out : NoFill up missing offset samples with silence : YesDelete leading and trailing silent blocks : NoNull samples used in CRC calculations : YesUsed interface : Native Win32 interface for Win NT & 2000Gap handling : Appended to previous track

Used output format : User Defined EncoderSelected bitrate : 128 kBit/sQuality : HighAdd ID3 tag : NoCommand line compressor : D:\Programme\Exact Audio Copy\Flac\flac.exeAdditional command line options : -8 -V -T "artist=%a" -T "title=%t" -T "album=%g" -T "date=%y" -T "tracknumber=%n" -T "genre=%m" %s

TOC of the extracted CD

Track | Start | Length | Start sector | End sector --------------------------------------------------------- 1 | 0:00.00 | 0:46.26 | 0 | 3475 2 | 0:46.26 | 1:49.70 | 3476 | 11720 3 | 2:36.21 | 0:55.29 | 11721 | 15874 4 | 3:31.50 | 2:17.19 | 15875 | 26168 5 | 5:48.69 | 2:34.40 | 26169 | 37758 6 | 8:23.34 | 0:54.70 | 37759 | 41878 7 | 9:18.29 | 0:39.46 | 41879 | 44849 8 | 9:58.00 | 2:26.15 | 44850 | 55814 9 | 12:24.15 | 2:01.34 | 55815 | 64923 10 | 14:25.49 | 2:52.74 | 64924 | 77897 11 | 17:18.48 | 1:39.11 | 77898 | 85333 12 | 18:57.59 | 1:08.54 | 85334 | 90487 13 | 20:06.38 | 4:46.26 | 90488 | 111963 14 | 24:52.64 | 2:11.50 | 111964 | 121838 15 | 27:04.39 | 2:34.43 | 121839 | 133431 16 | 29:39.07 | 2:28.11 | 133432 | 144542 17 | 32:07.18 | 2:57.20 | 144543 | 157837 18 | 35:04.38 | 2:24.61 | 157838 | 168698 19 | 37:29.24 | 0:41.52 | 168699 | 171825 20 | 38:11.01 | 2:29.37 | 171826 | 183037 21 | 40:40.38 | 1:49.19 | 183038 | 191231 22 | 42:29.57 | 1:35.04 | 191232 | 198360 23 | 44:04.61 | 1:59.61 | 198361 | 207346 24 | 46:04.47 | 1:21.49 | 207347 | 213470 25 | 47:26.21 | 2:25.00 | 213471 | 224345 26 | 49:51.21 | 2:48.27 | 224346 | 236972 27 | 52:39.48 | 1:06.01 | 236973 | 241923 28 | 53:45.49 | 1:12.33 | 241924 | 247356 29 | 54:58.07 | 2:04.24 | 247357 | 256680 30 | 57:02.31 | 1:23.23 | 256681 | 262928 31 | 58:25.54 | 0:44.62 | 262929 | 266290 32 | 59:10.41 | 2:45.13 | 266291 | 278678 33 | 61:55.54 | 0:25.22 | 278679 | 280575 34 | 62:21.01 | 1:54.21 | 280576 | 289146

Track 1

Filename D:\Rips\01 - Clone Awake.wav

Pre-gap length 0:00:02.00

Peak level 98.6 % Track quality 100.0 % Test CRC 118B6FCF Copy CRC 118B6FCF Accurately ripped (confidence 3) [E35EC7BE] Copy OK

Track 2

Filename D:\Rips\02 - The Ditch.wav

Pre-gap length 0:00:00.69

Peak level 98.9 % Track quality 99.9 % Test CRC 9FF3A3EF Copy CRC 9FF3A3EF Accurately ripped (confidence 3) [BEF5B9E6] Copy OK

Track 3

Filename D:\Rips\03 - Alice Ride.wav

Peak level 98.7 % Track quality 100.0 % Test CRC 945B5F74 Copy CRC 945B5F74 Accurately ripped (confidence 3) [7219BAA6] Copy OK

Track 4

Filename D:\Rips\04 - Dog Attack.wav

Peak level 99.1 % Track quality 100.0 % Test CRC 65BF874D Copy CRC 65BF874D Accurately ripped (confidence 3) [59F32C9E] Copy OK

Track 5

Filename D:\Rips\05 - To the Hive.wav

Pre-gap length 0:00:00.39

Peak level 89.0 % Track quality 100.0 % Test CRC 76361FDC Copy CRC 76361FDC Accurately ripped (confidence 3) [9E0E8E3F] Copy OK

Track 6

Filename D:\Rips\06 - Flysolated.wav

Pre-gap length 0:00:01.59

Peak level 91.5 % Track quality 100.0 % Test CRC CFAE15F6 Copy CRC CFAE15F6 Accurately ripped (confidence 3) [C6FFD083] Copy OK

Track 7

Filename D:\Rips\07 - Convoy.wav

Pre-gap length 0:00:01.23

Peak level 99.9 % Track quality 100.0 % Test CRC A5C198DA Copy CRC A5C198DA Accurately ripped (confidence 3) [26AE7A59] Copy OK

Track 8

Filename D:\Rips\08 - Motel Closet.wav

Pre-gap length 0:00:01.02

Peak level 99.1 % Track quality 100.0 % Test CRC 6C000DAC Copy CRC 6C000DAC Accurately ripped (confidence 3) [4BD5CDAE] Copy OK

Track 9

Filename D:\Rips\09 - Dexterity.wav

Pre-gap length 0:00:01.36

Peak level 98.7 % Track quality 100.0 % Test CRC 1704023F Copy CRC 1704023F Accurately ripped (confidence 3) [663EE0BE] Copy OK

Track 10

Filename D:\Rips\10 - Perimeter Fire.wav

Pre-gap length 0:00:01.52

Peak level 97.1 % Track quality 99.9 % Test CRC 165172BE Copy CRC 165172BE Accurately ripped (confidence 3) [2C49D728] Copy OK

Track 11

Filename D:\Rips\11 - Telepathic Sense.wav

Peak level 94.8 % Track quality 100.0 % Test CRC 4530BDB5 Copy CRC 4530BDB5 Accurately ripped (confidence 3) [FEC58F97] Copy OK

Track 12

Filename D:\Rips\12 - Desert Walk.wav

Pre-gap length 0:00:00.50

Peak level 95.2 % Track quality 99.8 % Test CRC 0E255BDD Copy CRC 0E255BDD Accurately ripped (confidence 3) [23346A0E] Copy OK

Track 13

Filename D:\Rips\13 - Birds Attack.wav

Pre-gap length 0:00:00.06

Peak level 100.0 % Track quality 100.0 % Test CRC 96B87A33 Copy CRC 96B87A33 Accurately ripped (confidence 3) [BD7DA1AC] Copy OK

Track 14

Filename D:\Rips\14 - Choose Sides.wav

Peak level 97.9 % Track quality 100.0 % Test CRC AD707322 Copy CRC AD707322 Accurately ripped (confidence 3) [313DD2BD] Copy OK

Track 15

Filename D:\Rips\15 - Carlos Hug.wav

Pre-gap length 0:00:00.25

Peak level 95.8 % Track quality 100.0 % Test CRC B4786849 Copy CRC B4786849 Accurately ripped (confidence 3) [C69DC9DB] Copy OK

Track 16

Filename D:\Rips\16 - Positive ID.wav

Pre-gap length 0:00:00.45

Peak level 89.1 % Track quality 100.0 % Test CRC 74A58574 Copy CRC 74A58574 Accurately ripped (confidence 3) [173728C6] Copy OK

Track 17

Filename D:\Rips\17 - For Alaska.wav

Pre-gap length 0:00:01.63

Peak level 96.7 % Track quality 100.0 % Test CRC 6DCAB04F Copy CRC 6DCAB04F Accurately ripped (confidence 3) [81B2CA4B] Copy OK

Track 18

Filename D:\Rips\18 - New Orders.wav

Pre-gap length 0:00:01.42

Peak level 100.0 % Track quality 100.0 % Test CRC CF105841 Copy CRC CF105841 Accurately ripped (confidence 3) [87C59E55] Copy OK

Track 19

Filename D:\Rips\19 - Vegas Journal.wav

Pre-gap length 0:00:01.08

Peak level 77.2 % Track quality 100.0 % Test CRC DD4A9132 Copy CRC DD4A9132 Accurately ripped (confidence 3) [09DAAEA7] Copy OK

Track 20

Filename D:\Rips\20 - Container.wav

Pre-gap length 0:00:01.03

Peak level 100.0 % Track quality 100.0 % Test CRC 61ED203B Copy CRC 61ED203B Accurately ripped (confidence 3) [DD3DD4E3] Copy OK

Track 21

Filename D:\Rips\21 - Open Box.wav

Pre-gap length 0:00:01.00

Peak level 99.2 % Track quality 99.9 % Test CRC 8E591489 Copy CRC 8E591489 Accurately ripped (confidence 3) [DFD529D0] Copy OK

Track 22

Filename D:\Rips\22 - Losing Texan.wav

Pre-gap length 0:00:00.34

Peak level 100.0 % Track quality 100.0 % Test CRC E8906805 Copy CRC E8906805 Accurately ripped (confidence 3) [F5C722B9] Copy OK

Track 23

Filename D:\Rips\23 - To Tent.wav

Pre-gap length 0:00:00.32

Peak level 99.9 % Track quality 100.0 % Test CRC EB6D6206 Copy CRC EB6D6206 Accurately ripped (confidence 3) [0354CBE5] Copy OK

Track 24

Filename D:\Rips\24 - Tentacles.wav

Pre-gap length 0:00:00.03

Peak level 98.3 % Track quality 99.7 % Test CRC EA64BA35 Copy CRC EA64BA35 Accurately ripped (confidence 3) [080A139C] Copy OK

Track 25

Filename D:\Rips\25 - Carlos Plan.wav

Pre-gap length 0:00:00.64

Peak level 90.0 % Track quality 100.0 % Test CRC 795C2754 Copy CRC 795C2754 Accurately ripped (confidence 3) [4099DA20] Copy OK

Track 26

Filename D:\Rips\26 - Tanker Truck.wav

Pre-gap length 0:00:00.52

Peak level 100.0 % Track quality 99.9 % Test CRC F6F17F14 Copy CRC F6F17F14 Accurately ripped (confidence 3) [94738B76] Copy OK

Track 27

Filename D:\Rips\27 - Others Gone.wav

Pre-gap length 0:00:00.52

Peak level 96.0 % Track quality 100.0 % Test CRC 80F40231 Copy CRC 80F40231 Accurately ripped (confidence 3) [B54BF33D] Copy OK

Track 28

Filename D:\Rips\28 - Elevator.wav

Pre-gap length 0:00:00.22

Peak level 91.6 % Track quality 100.0 % Test CRC 1516102F Copy CRC 1516102F Accurately ripped (confidence 3) [130DA3BE] Copy OK

Track 29

Filename D:\Rips\29 - Your Blood.wav

Pre-gap length 0:00:00.55

Peak level 100.0 % Track quality 100.0 % Test CRC 830F47E7 Copy CRC 830F47E7 Accurately ripped (confidence 3) [081EA508] Copy OK

Track 30

Filename D:\Rips\30 - Clone Bubble.wav

Pre-gap length 0:00:00.14

Peak level 100.0 % Track quality 100.0 % Test CRC 1A9339CB Copy CRC 1A9339CB Accurately ripped (confidence 3) [317D0225] Copy OK

Track 31

Filename D:\Rips\31 - Alice Pic.wav

Pre-gap length 0:00:01.46

Peak level 95.9 % Track quality 99.7 % Test CRC 8A94663C Copy CRC 8A94663C Accurately ripped (confidence 3) [816CF92B] Copy OK

Track 32

Filename D:\Rips\32 - Isaacs Dead.wav

Peak level 100.0 % Track quality 100.0 % Test CRC 2ACF791C Copy CRC 2ACF791C Accurately ripped (confidence 3) [78342F12] Copy OK

Track 33

Filename D:\Rips\33 - Laser Tunnel.wav

Pre-gap length 0:00:00.18

Peak level 100.0 % Track quality 100.0 % Test CRC D2D6CE4B Copy CRC D2D6CE4B Accurately ripped (confidence 3) [744F5DCB] Copy OK

Track 34

Filename D:\Rips\34 - New Headquarters.wav

Pre-gap length 0:00:01.50

Peak level 100.0 % Track quality 100.0 % Test CRC 92DD92E8 Copy CRC 92DD92E8 Accurately ripped (confidence 3) [C9079232] Copy OK

All tracks accurately ripped

No errors occurred

End of status report
 
REM GENRE SoundtrackREM DATE 2007REM DISCID CE0F0F22REM COMMENT "ExactAudioCopy v0.99pb5"PERFORMER "Charlie Clouser"TITLE "Resident Evil: Extinction (Score)"FILE "01 - Clone Awake.wav" WAVE TRACK 01 AUDIO TITLE "Clone Awake" PERFORMER "Charlie Clouser" INDEX 01 00:00:00 TRACK 02 AUDIO TITLE "The Ditch" PERFORMER "Charlie Clouser" INDEX 00 00:45:29FILE "02 - The Ditch.wav" WAVE INDEX 01 00:00:00FILE "03 - Alice Ride.wav" WAVE TRACK 03 AUDIO TITLE "Alice Ride" PERFORMER "Charlie Clouser" INDEX 01 00:00:00FILE "04 - Dog Attack.wav" WAVE TRACK 04 AUDIO TITLE "Dog Attack" PERFORMER "Charlie Clouser" INDEX 01 00:00:00 TRACK 05 AUDIO TITLE "To the Hive" PERFORMER "Charlie Clouser" INDEX 00 02:16:57FILE "05 - To the Hive.wav" WAVE INDEX 01 00:00:00 TRACK 06 AUDIO TITLE "Flysolated" PERFORMER "Charlie Clouser" INDEX 00 02:32:52FILE "06 - Flysolated.wav" WAVE INDEX 01 00:00:00 TRACK 07 AUDIO TITLE "Convoy" PERFORMER "Charlie Clouser" INDEX 00 00:53:39FILE "07 - Convoy.wav" WAVE INDEX 01 00:00:00 TRACK 08 AUDIO TITLE "Motel Closet" PERFORMER "Charlie Clouser" INDEX 00 00:38:46FILE "08 - Motel Closet.wav" WAVE INDEX 01 00:00:00 TRACK 09 AUDIO TITLE "Dexterity" PERFORMER "Charlie Clouser" INDEX 00 02:24:50FILE "09 - Dexterity.wav" WAVE INDEX 01 00:00:00 TRACK 10 AUDIO TITLE "Perimeter Fire" PERFORMER "Charlie Clouser" INDEX 00 01:59:54FILE "10 - Perimeter Fire.wav" WAVE INDEX 01 00:00:00FILE "11 - Telepathic Sense.wav" WAVE TRACK 11 AUDIO TITLE "Telepathic Sense" PERFORMER "Charlie Clouser" INDEX 01 00:00:00 TRACK 12 AUDIO TITLE "Desert Walk" PERFORMER "Charlie Clouser" INDEX 00 01:38:52FILE "12 - Desert Walk.wav" WAVE INDEX 01 00:00:00 TRACK 13 AUDIO TITLE "Birds Attack" PERFORMER "Charlie Clouser" INDEX 00 01:08:42FILE "13 - Birds Attack.wav" WAVE INDEX 01 00:00:00FILE "14 - Choose Sides.wav" WAVE TRACK 14 AUDIO TITLE "Choose Sides" PERFORMER "Charlie Clouser" INDEX 01 00:00:00 TRACK 15 AUDIO TITLE "Carlos Hug" PERFORMER "Charlie Clouser" INDEX 00 02:11:17FILE "15 - Carlos Hug.wav" WAVE INDEX 01 00:00:00 TRACK 16 AUDIO TITLE "Positive ID" PERFORMER "Charlie Clouser" INDEX 00 02:33:56FILE "16 - Positive ID.wav" WAVE INDEX 01 00:00:00 TRACK 17 AUDIO TITLE "For Alaska" PERFORMER "Charlie Clouser" INDEX 00 02:26:13FILE "17 - For Alaska.wav" WAVE INDEX 01 00:00:00 TRACK 18 AUDIO TITLE "New Orders" PERFORMER "Charlie Clouser" INDEX 00 02:55:51FILE "18 - New Orders.wav" WAVE INDEX 01 00:00:00 TRACK 19 AUDIO TITLE "Vegas Journal" PERFORMER "Charlie Clouser" INDEX 00 02:23:49FILE "19 - Vegas Journal.wav" WAVE INDEX 01 00:00:00 TRACK 20 AUDIO TITLE "Container" PERFORMER "Charlie Clouser" INDEX 00 00:40:49FILE "20 - Container.wav" WAVE INDEX 01 00:00:00 TRACK 21 AUDIO TITLE "Open Box" PERFORMER "Charlie Clouser" INDEX 00 02:28:15FILE "21 - Open Box.wav" WAVE INDEX 01 00:00:00 TRACK 22 AUDIO TITLE "Losing Texan" PERFORMER "Charlie Clouser" INDEX 00 01:48:43FILE "22 - Losing Texan.wav" WAVE INDEX 01 00:00:00 TRACK 23 AUDIO TITLE "To Tent" PERFORMER "Charlie Clouser" INDEX 00 01:34:58FILE "23 - To Tent.wav" WAVE INDEX 01 00:00:00 TRACK 24 AUDIO TITLE "Tentacles" PERFORMER "Charlie Clouser" INDEX 00 01:59:53FILE "24 - Tentacles.wav" WAVE INDEX 01 00:00:00 TRACK 25 AUDIO TITLE "Carlos Plan" PERFORMER "Charlie Clouser" INDEX 00 01:20:45FILE "25 - Carlos Plan.wav" WAVE INDEX 01 00:00:00 TRACK 26 AUDIO TITLE "Tanker Truck" PERFORMER "Charlie Clouser" INDEX 00 02:24:23FILE "26 - Tanker Truck.wav" WAVE INDEX 01 00:00:00 TRACK 27 AUDIO TITLE "Others Gone" PERFORMER "Charlie Clouser" INDEX 00 02:47:57FILE "27 - Others Gone.wav" WAVE INDEX 01 00:00:00 TRACK 28 AUDIO TITLE "Elevator" PERFORMER "Charlie Clouser" INDEX 00 01:05:30FILE "28 - Elevator.wav" WAVE INDEX 01 00:00:00 TRACK 29 AUDIO TITLE "Your Blood" PERFORMER "Charlie Clouser" INDEX 00 01:11:48FILE "29 - Your Blood.wav" WAVE INDEX 01 00:00:00FILE "30 - Clone Bubble.wav" WAVE TRACK 30 AUDIO TITLE "Clone Bubble" PERFORMER "Charlie Clouser" INDEX 01 00:00:00 TRACK 31 AUDIO TITLE "Alice Pic" PERFORMER "Charlie Clouser" INDEX 00 01:21:66FILE "31 - Alice Pic.wav" WAVE INDEX 01 00:00:00 TRACK 32 AUDIO TITLE "Isaacs Dead" PERFORMER "Charlie Clouser" INDEX 00 00:44:55FILE "32 - Isaacs Dead.wav" WAVE INDEX 01 00:00:00 TRACK 33 AUDIO TITLE "Laser Tunnel" PERFORMER "Charlie Clouser" INDEX 00 02:44:37FILE "33 - Laser Tunnel.wav" WAVE INDEX 01 00:00:00 TRACK 34 AUDIO TITLE "New Headquarters" PERFORMER "Charlie Clouser" INDEX 00 00:24:04FILE "34 - New Headquarters.wav" WAVE INDEX 01 00:00:00


Трекер:  [ 19-Дек-2010 15:58 ]

  

Скачать .torrent

Размер .torrent файла 16 KB


Размер: 343 MB
Хэш (hash) релиза: 13399208d0f6562835b62260aca2cff3ec8543dd

Торренты, похожие на Charlie Clouser - Resident Evil: Extinction Обитель Зла 3: Вымирание - 2007, FLAC скачать торрент

Форум Название Автор Размер S L Добавлен
Саундтреки к фильмам и мультфильмам (lossless) ·· (Soundtrack) Charlie Clouser & VA - Resident Evil Extinction OST - / Обитель Зла 3 Вымирание - 2007, FLAC (tracks+.cue), lossless AqvaGen 584703264558 MB 0 0 1292268480

22:28

13-Дек-10

bot

Топик был перенесен в форум Саундтреки к фильмам и мультфильмам (lossless)

Перенес AqvaGen

Хотите добавить комментарий к записи скачать торрент Charlie Clouser - Resident Evil: Extinction Обитель Зла 3: Вымирание - 2007, FLAC

!Обратная связь