Скачать через торрент музыку Cry Baby Плакса - 1990, APE бесплатно без регистрации torrent

Статистика раздачи
Размер:  278 MB   |    Зарегистрирован:  7 лет 4 месяца   |    .torrent скачан:  45 раз   |   
Раздают:  1  
   
загрузка...
 
Автор Сообщение

Galfimbul

avatar Galfimbul


Cry Baby / Плакса

Страна: сша
Жанр: oldies
Год выпуска: 1990
Формат: APE (image + .cue)
Битрейт аудио: lossless
Продолжительность: 50 мин. 45 сек.

Трэклист:
01 King Cry - Baby - James Intveld 03:41
02 Sh - Boom - Baldwin and the Whiffles 02:48
03 Doin' Time for Being Young - James Intveld 03:06
04 A Teenage Prayer - Rachel Sweet 02:07
05 Please Mr. Jailer - Rachel Sweet 04:02
06 Cry Baby - The Honey Sisters 03:14
07 Teardrops Are Falling - James Intveld 02:30
08 Nosey Joe - Bull Moose Jackson 02:30
09 Mr. Sandman - Baldwin and the Whiffles 02:21
10 High School Hellcats - James Intveld 04:05
11 Bad Boy - The Jive Bombers 02:52
12 The Flirt - Shirley and Lee 01:57
13 I'm so Young - The Students 02:29
14 Piddily Patter - Nappy Brown 02:03
15 I'm a Bad Bad Girl - Little Esther 02:54
16 Jungle Drums - Earl Bostic 02:50
17 Cherry - The Jive Bombers 02:57
18 Rubber Biscuit - The Chips 02:06
Exact Audio Copy V0.99 prebeta 3 from 28. July 2007

Отчёт EAC об извлечении, выполненном 25. ноября 2007, 1:07

- / cry baby

Дисковод: HL-DT-STDVDRAM GSA-T20N Adapter: 1 ID: 0

Режим чтения : Достоверность
Использование точного потока : Да
Отключение кэша аудио : Да
Использование указателей C2 : Нет

Коррекция смещения при чтении : 667
Способность читать области Lead-in и Lead-out : Нет
Заполнение пропущенных сэмплов тишиной : Да
Удаление блоков с тишиной в начале и конце : Нет
При вычислениях CRC использовались нулевые сэмплы : Да

Выходной формат : Внутренние WAV-операции
Формат сэмплов : 44.100 Гц; 16 бит; стерео

TOC извлечённого CD

Трек | Старт | Длительность | Начальный сектор | Конечный сектор
---------------------------------------------------------------------
1 | 0:00.00 | 3:40.44 | 0 | 16543
2 | 3:40.44 | 2:48.66 | 16544 | 29209
3 | 6:29.35 | 3:06.46 | 29210 | 43205
4 | 9:36.06 | 2:07.58 | 43206 | 52788
5 | 11:43.64 | 4:02.32 | 52789 | 70970
6 | 15:46.21 | 3:14.71 | 70971 | 85591
7 | 19:01.17 | 2:30.25 | 85592 | 96866
8 | 21:31.42 | 2:36.32 | 96867 | 108598
9 | 24:07.74 | 2:21.50 | 108599 | 119223
10 | 26:29.49 | 4:05.29 | 119224 | 137627
11 | 30:35.03 | 2:52.03 | 137628 | 150530
12 | 33:27.06 | 1:56.62 | 150531 | 159292
13 | 35:23.68 | 2:28.74 | 159293 | 170466
14 | 37:52.67 | 2:02.72 | 170467 | 179688
15 | 39:55.64 | 2:54.60 | 179689 | 192798
16 | 42:50.49 | 2:50.55 | 192799 | 205603
17 | 45:41.29 | 2:56.63 | 205604 | 218866
18 | 48:38.17 | 2:06.68 | 218867 | 228384

Характеристики диапазона извлечения и сообщения об ошибках

Выбранный диапазон

Имя файла D:\cry_baby_ost.wav

Пиковый уровень 100.0 %
Качество диапазона 100.0 %
CRC копии BB91A2E1
Копирование... OK

Ошибок не произошло

Конец отчёта
AUDIOCHECKER v2.0 beta (build 457) - by Dester
~~~~~~~~~~~~~~~~~~~~~~~~~~~~~~~~~~

Начато: суббота, 24. 11. 2007. - 22:39.16
Найдено файлов: 18

01 -===- трек 1 в приводе HL-DT-STDVDRAM GSA-T20N
Трек успешно извлечён
Заключение: этот трек - CDDA с вероятностью 100%
Временный файл удалён.

02 -===- трек 2 в приводе HL-DT-STDVDRAM GSA-T20N
Трек успешно извлечён
Заключение: этот трек - CDDA с вероятностью 100%
Временный файл удалён.

03 -===- трек 3 в приводе HL-DT-STDVDRAM GSA-T20N
Трек успешно извлечён
Заключение: этот трек - CDDA с вероятностью 99%
Временный файл удалён.

04 -===- трек 4 в приводе HL-DT-STDVDRAM GSA-T20N
Трек успешно извлечён
Заключение: этот трек - CDDA с вероятностью 100%
Временный файл удалён.

05 -===- трек 5 в приводе HL-DT-STDVDRAM GSA-T20N
Трек успешно извлечён
Заключение: этот трек - CDDA с вероятностью 100%
Временный файл удалён.

06 -===- трек 6 в приводе HL-DT-STDVDRAM GSA-T20N
Трек успешно извлечён
Заключение: этот трек - CDDA с вероятностью 100%
Временный файл удалён.

07 -===- трек 7 в приводе HL-DT-STDVDRAM GSA-T20N
Трек успешно извлечён
Заключение: этот трек - CDDA с вероятностью 100%
Временный файл удалён.

08 -===- трек 8 в приводе HL-DT-STDVDRAM GSA-T20N
Трек успешно извлечён
Заключение: этот трек - CDDA с вероятностью 100%
Временный файл удалён.

09 -===- трек 9 в приводе HL-DT-STDVDRAM GSA-T20N
Трек успешно извлечён
Заключение: этот трек - CDDA с вероятностью 100%
Временный файл удалён.

10 -===- трек 10 в приводе HL-DT-STDVDRAM GSA-T20N
Трек успешно извлечён
Заключение: этот трек - CDDA с вероятностью 100%
Временный файл удалён.

11 -===- трек 11 в приводе HL-DT-STDVDRAM GSA-T20N
Трек успешно извлечён
Заключение: этот трек - CDDA с вероятностью 100%
Временный файл удалён.

12 -===- трек 12 в приводе HL-DT-STDVDRAM GSA-T20N
Трек успешно извлечён
Заключение: этот трек - CDDA с вероятностью 100%
Временный файл удалён.

13 -===- трек 13 в приводе HL-DT-STDVDRAM GSA-T20N
Трек успешно извлечён
Заключение: этот трек - CDDA с вероятностью 100%
Временный файл удалён.

14 -===- трек 14 в приводе HL-DT-STDVDRAM GSA-T20N
Трек успешно извлечён
Заключение: этот трек - CDDA с вероятностью 100%
Временный файл удалён.

15 -===- трек 15 в приводе HL-DT-STDVDRAM GSA-T20N
Трек успешно извлечён
Заключение: этот трек - CDDA с вероятностью 100%
Временный файл удалён.

16 -===- трек 16 в приводе HL-DT-STDVDRAM GSA-T20N
Трек успешно извлечён
Заключение: этот трек - CDDA с вероятностью 99%
Временный файл удалён.

17 -===- трек 17 в приводе HL-DT-STDVDRAM GSA-T20N
Трек успешно извлечён
Заключение: этот трек - CDDA с вероятностью 100%
Временный файл удалён.

18 -===- трек 18 в приводе HL-DT-STDVDRAM GSA-T20N
Трек успешно извлечён
Заключение: этот трек - CDDA с вероятностью 100%
Временный файл удалён.

Завершено: суббота, 24. 11. 2007. - 22:59.08 (Время операции: 0:19.51)


Трекер:  [ 07-Июл-2011 23:19 ]

  

Скачать .torrent

Размер .torrent файла 22 KB


Размер: 278 MB
Хэш (hash) релиза: 700ca9ee69e6c77b6439c7a65d5495f94506c8ed

Еще никто не оставлял запись к записи скачать торрент Cry Baby Плакса - 1990, APE . Будь первым!

!Обратная связь