Скачать через торрент музыку Conan The Barbarian бесплатно без регистрации torrent

Статистика раздачи
Размер:  367 MB   |    Зарегистрирован:  7 лет 1 месяц   |    .torrent скачан:  71 раз   |   
Раздают:  1  
   
загрузка...
 
Автор Сообщение

Galfimbul

avatar Galfimbul


Conan The Barbarian [Varese Sarabande Expanded Edition]

Жанр: Score
Год выпуска диска: 1992
Производитель диска: Varèse Sarabande, USA
Аудио кодек: FLAC
Тип рипа: tracks+.cue
Битрейт аудио: lossless
Продолжительность: 67:20
Трэклист:
1. Anvil Of Crom (2:34)
2. Riddle Of Steel / Riders Of Doom (5:36)
3. Gift Of Fury (3:50)
4. Wheel Of Pain (4:09)
5. Atlantean Sword (3:50)
6. Theology / Civilization (3:13)
7. Wifeing - Theme Of Love From "Conan The Barbarian" (2:10)
8. The Leaving / The Search (5:59)
9. Mountain Of Power Procession (3:21)
10. The Tree Of Woe (3:31)
11. Recovery (2:11)
12. The Kitchen / The Orgy (6:30)
13. Funeral Pyre (4:29)
14. Battle Of The Mounds (4:52)
15. Death Of Rexor (5:34)
16. Orphans Of Doom / The Awakening (5:31)
EAC extraction logfile from 8. February 2006, 21:03 for CD
Poledouris, Basil / Conan the Barbarian

Used drive : PLEXTOR DVDR PX-712A Adapter: 1 ID: 0
Read mode : Secure with NO C2, accurate stream, disable cache
Read offset correction : 30
Overread into Lead-In and Lead-Out : Yes

Used output format : C:\Program Files\FLAC\flac.exe (User Defined Encoder)
320 kBit/s
Additional command line options : -8 -V -T "artist=%a" -T "title=%t" -T "album=%g" -T "date=%y" -T "tracknumber=%n" -T "genre=%m" -T "comment=EAC FLAC 1.1.2 " %s

Other options :
Fill up missing offset samples with silence : Yes
Delete leading and trailing silent blocks : No
Installed external ASPI interface

Track 1
Filename D:\Basil Poledouris - Conan the Barbarian - OST (1982) FLAC\01 - Anvil of Crom.wav

Pre-gap length 0:00:02.00

Peak level 87.4 %
Track quality 100.0 %
Test CRC 5EACB604
Copy CRC 5EACB604
Copy OK

Track 2
Filename D:\Basil Poledouris - Conan the Barbarian - OST (1982) FLAC\02 - Riddle of Steel - Riders of Doom.wav

Pre-gap length 0:00:01.33

Peak level 82.8 %
Track quality 100.0 %
Test CRC 99A90332
Copy CRC 99A90332
Copy OK

Track 3
Filename D:\Basil Poledouris - Conan the Barbarian - OST (1982) FLAC\03 - Gift of Fury.wav

Pre-gap length 0:00:00.63

Peak level 64.8 %
Track quality 100.0 %
Test CRC 93810CB1
Copy CRC 93810CB1
Copy OK

Track 4
Filename D:\Basil Poledouris - Conan the Barbarian - OST (1982) FLAC\04 - Wheel of Pain.wav

Pre-gap length 0:00:01.13

Peak level 84.5 %
Track quality 100.0 %
Test CRC ED51E319
Copy CRC ED51E319
Copy OK

Track 5
Filename D:\Basil Poledouris - Conan the Barbarian - OST (1982) FLAC\05 - Atlantean Sword.wav

Pre-gap length 0:00:01.25

Peak level 74.0 %
Track quality 100.0 %
Test CRC 5FFD576E
Copy CRC 5FFD576E
Copy OK

Track 6
Filename D:\Basil Poledouris - Conan the Barbarian - OST (1982) FLAC\06 - Theology - Civilization.wav

Pre-gap length 0:00:01.32

Peak level 94.4 %
Track quality 100.0 %
Test CRC 95645CB4
Copy CRC 95645CB4
Copy OK

Track 7
Filename D:\Basil Poledouris - Conan the Barbarian - OST (1982) FLAC\07 - Wifeing (Theme of Love from 'Conan the Barbarian').wav

Pre-gap length 0:00:01.53

Peak level 75.6 %
Track quality 99.9 %
Test CRC 13FB1808
Copy CRC 13FB1808
Copy OK

Track 8
Filename D:\Basil Poledouris - Conan the Barbarian - OST (1982) FLAC\08 - The Leaving - The Search.wav

Pre-gap length 0:00:01.42

Peak level 72.5 %
Track quality 100.0 %
Test CRC 4C65F902
Copy CRC 4C65F902
Copy OK

Track 9
Filename D:\Basil Poledouris - Conan the Barbarian - OST (1982) FLAC\09 - Mountain of Power Procession.wav

Pre-gap length 0:00:01.43

Peak level 79.1 %
Track quality 100.0 %
Test CRC 2A105CDB
Copy CRC 2A105CDB
Copy OK

Track 10
Filename D:\Basil Poledouris - Conan the Barbarian - OST (1982) FLAC\10 - The Tree of Woe.wav

Pre-gap length 0:00:01.58

Peak level 80.9 %
Track quality 100.0 %
Test CRC 01406D82
Copy CRC 01406D82
Copy OK

Track 11
Filename D:\Basil Poledouris - Conan the Barbarian - OST (1982) FLAC\11 - Recovery.wav

Pre-gap length 0:00:01.67

Peak level 55.8 %
Track quality 100.0 %
Test CRC 806A90FA
Copy CRC 806A90FA
Copy OK

Track 12
Filename D:\Basil Poledouris - Conan the Barbarian - OST (1982) FLAC\12 - The Kitchen - The Orgy.wav

Pre-gap length 0:00:01.30

Peak level 74.6 %
Track quality 100.0 %
Test CRC 05937ADC
Copy CRC 05937ADC
Copy OK

Track 13
Filename D:\Basil Poledouris - Conan the Barbarian - OST (1982) FLAC\13 - Funeral Pyre.wav

Pre-gap length 0:00:00.63

Peak level 74.0 %
Track quality 100.0 %
Test CRC 264AA6DB
Copy CRC 264AA6DB
Copy OK

Track 14
Filename D:\Basil Poledouris - Conan the Barbarian - OST (1982) FLAC\14 - Battle of the Mounds.wav

Pre-gap length 0:00:02.00

Peak level 85.7 %
Track quality 100.0 %
Test CRC 030CF5A4
Copy CRC 030CF5A4
Copy OK

Track 15
Filename D:\Basil Poledouris - Conan the Barbarian - OST (1982) FLAC\15 - Death of Rexor.wav

Pre-gap length 0:00:01.11

Peak level 67.5 %
Track quality 100.0 %
Test CRC 95831CEC
Copy CRC 95831CEC
Copy OK

Track 16
Filename D:\Basil Poledouris - Conan the Barbarian - OST (1982) FLAC\16 - Orphans of Doom - The Awakening.wav

Pre-gap length 0:00:00.70

Peak level 87.1 %
Track quality 100.0 %
Test CRC C6773305
Copy CRC C6773305
Copy OK

No errors occured

End of status report


Трекер:  [ 07-Июл-2011 23:18 ]

  

Скачать .torrent

Размер .torrent файла 16 KB


Размер: 367 MB
Хэш (hash) релиза: f936c91912132fad4e609009862ff5fcce2fbe6f

Торренты, похожие на Conan The Barbarian скачать торрент

Форум Название Автор Размер S L Добавлен
Саундтреки к фильмам и мультфильмам (lossless) ·· (Score) Конан-варвар / Conan The Barbarian [30th Anniversary Edition] (by Basil Poledouris) - 2012 (1982), FLAC (image+.cue), lossless Galfimbul 14347593851.34 GB 0 0 1385281971

11:32

24-Ноя-13

Саундтреки к фильмам и мультфильмам (lossless) ·· (Score) Конан-варвар / Conan The Barbarian, 30th Anniversary Edition (Basil Poledouris) - 2012, FLAC (tracks+.cue), lossless Galfimbul 11606498471.08 GB 0 0 1370680331

11:32

8-Июн-13

Саундтреки к фильмам и мультфильмам (lossless) ·· (Score) Basil Poledouris - Conan the Barbarian / Конан-Варвар - 1982, APE (image+.cue), lossless Mos 249348118238 MB 0 0 1292270617

23:03

13-Дек-10

Саундтреки к фильмам и мультфильмам (mp3) ·· (Score) Конан-варвар / Conan The Barbarian (20th Anniversary Edition) (Basil Poledouris) - 2002, MP3, 320 kbps AqvaGen 119990924114 MB 0 0 1292266426

21:53

13-Дек-10

Саундтреки к фильмам и мультфильмам (mp3) ·· (Score) Конан-варвар / Conan the Barbarian [Complete] (by Basil Poledouris) - 2010 (1982), MP3 (tracks), 320 kbps Galfimbul 332572485317 MB 0 0 1292266403

21:53

13-Дек-10

Еще никто не оставлял запись к записи скачать торрент Conan The Barbarian . Будь первым!

!Обратная связь