Скачать через торрент музыку Генрих IV Henri 4 бесплатно без регистрации torrent

Статистика раздачи
Размер:  292 MB   |    Зарегистрирован:  7 лет 7 месяцев   |    .torrent скачан:  54 раза   |   
Раздают:  1  
   
загрузка...
 
Автор Сообщение

AqvaGen


Henri 4
Hans Zimmer & Henry Jackman

Жанр: Score

Дата выпуска диска: 16 марта 2010
Страна: EU
Производитель диска: Sony Bmg Europe

Аудио кодек: FLAC
Тип рипа: image+.cue
Битрейт аудио: lossless

Продолжительность: 62:04
Tracklist:

01. A Destiny Revealed (3:45)
02. The Huguenots (5:35)
03. Thoinot Arbeau - Belle Qui Tiens Ma Vie (1:11)
04. Journey To Paris (1:52)
05. The Louvre (5:52)
06. Margot De Valois (2:19)
07. Philidor - Bourree d'Avignonez (1:17)
08. The Wedding (2:26)
09. The Massacre (1:32)
10. Le Concert Des Nations - Mortal Tristura (1:44)
11. Henri's Escape (2:14)
12. Man Of The People (1:09)
13. The Edict Of Nantes (5:10)
14. La Capella Reial De Catalunya - Te Deum (1:34)
15. Gabrielle D'Estrees (2:56)
16. The Murder Of Guise (2:23)
17. Freedom Regained (2:07)
18. Kassel - Sarabande & Tambourin (1:16)
19. The King Is Dead, Long Live The King (2:36)
20. Farewell To A Friend (2:06)
21. Rosny's Confession (1:50)
22. Christobal De Morales - Requiem Sequentia (1:38)
23. Let Reason Rule (2:21)
24. Marie De Medici (1:09)
25. A Prophecy Fulfilled (3:00)
 
Exact Audio Copy V0.99 prebeta 4 from 23. January 2008

Отчёт EAC об извлечении, выполненном 23. мая 2010, 19:56

Hans Zimmer & Henry Jackson / Henri 4

Дисковод: ASUS SDRW-08D1S-U Adapter: 2 ID: 0

Режим чтения : ДостоверностьИспользование точного потока : ДаОтключение кэша аудио : ДаИспользование указателей C2 : Нет

Коррекция смещения при чтении : 667Способность читать области Lead-in и Lead-out : ДаЗаполнение пропущенных сэмплов тишиной : ДаУдаление блоков с тишиной в начале и конце : НетПри вычислениях CRC использовались нулевые сэмплы : ДаИнтерфейс : Встроенный Win32-интерфейс для Win NT/2000

Выходной формат : Внутренние WAV-операцииФормат сэмплов : 44.100 Гц; 16 бит; стерео

TOC извлечённого CD

Трек | Старт | Длительность | Начальный сектор | Конечный сектор --------------------------------------------------------------------- 1 | 0:00.00 | 3:47.50 | 0 | 17074 2 | 3:47.50 | 5:37.57 | 17075 | 42406 3 | 9:25.32 | 1:13.35 | 42407 | 47916 4 | 10:38.67 | 1:54.53 | 47917 | 56519 5 | 12:33.45 | 5:54.20 | 56520 | 83089 6 | 18:27.65 | 2:21.21 | 83090 | 93685 7 | 20:49.11 | 1:19.65 | 93686 | 99675 8 | 22:09.01 | 2:28.44 | 99676 | 110819 9 | 24:37.45 | 1:34.33 | 110820 | 117902 10 | 26:12.03 | 1:46.40 | 117903 | 125892 11 | 27:58.43 | 2:16.58 | 125893 | 136150 12 | 30:15.26 | 1:11.27 | 136151 | 141502 13 | 31:26.53 | 5:12.68 | 141503 | 164970 14 | 36:39.46 | 1:36.30 | 164971 | 172200 15 | 38:16.01 | 2:58.39 | 172201 | 185589 16 | 41:14.40 | 2:25.63 | 185590 | 196527 17 | 43:40.28 | 2:09.44 | 196528 | 206246 18 | 45:49.72 | 1:18.64 | 206247 | 212160 19 | 47:08.61 | 2:38.21 | 212161 | 224031 20 | 49:47.07 | 2:08.61 | 224032 | 233692 21 | 51:55.68 | 1:52.09 | 233693 | 242101 22 | 53:48.02 | 1:40.68 | 242102 | 249669 23 | 55:28.70 | 2:23.71 | 249670 | 260465 24 | 57:52.66 | 1:11.43 | 260466 | 265833 25 | 59:04.34 | 3:00.40 | 265834 | 279373

Характеристики диапазона извлечения и сообщения об ошибках

Выбранный диапазон

Имя файла F:\My Documents\Music\Zimmer\Hans Zimmer & Henry Jackson - Henri 4.wav

Пиковый уровень 92.1 % Качество диапазона 100.0 % CRC теста 59B284E4 CRC копии 59B284E4 Копирование... OK

Ошибок не произошло

AccurateRip: сводка

Трек 1 нет в базе данныхТрек 2 нет в базе данныхТрек 3 нет в базе данныхТрек 4 нет в базе данныхТрек 5 нет в базе данныхТрек 6 нет в базе данныхТрек 7 нет в базе данныхТрек 8 нет в базе данныхТрек 9 нет в базе данныхТрек 10 нет в базе данныхТрек 11 нет в базе данныхТрек 12 нет в базе данныхТрек 13 нет в базе данныхТрек 14 нет в базе данныхТрек 15 нет в базе данныхТрек 16 нет в базе данныхТрек 17 нет в базе данныхТрек 18 нет в базе данныхТрек 19 нет в базе данныхТрек 20 нет в базе данныхТрек 21 нет в базе данныхТрек 22 нет в базе данныхТрек 23 нет в базе данныхТрек 24 нет в базе данныхТрек 25 нет в базе данных

Ни одного трека нет в базе AccurateRip

Конец отчёта


Трекер:  [ 19-Дек-2010 15:52 ]

  

Скачать .torrent

Размер .torrent файла 12 KB


Размер: 292 MB
Хэш (hash) релиза: 38d3a3e63dad9311fabc35431c368592bf27ed89

bot

Топик был перенесен в форум Зарубежный Rap, Hip-Hop, R'n'B (mp3)

Перенес AqvaGen

AqvaGen

Оу заработался
Модераторы,перенесите в саундтреки

bot

Топик был перенесен из форума Зарубежный Rap, Hip-Hop, R'n'B (mp3) в форум Саундтреки к фильмам и мультфильмам (lossless)

Mos

Хотите добавить комментарий к записи скачать торрент Генрих IV Henri 4

!Обратная связь