Скачать через торрент музыку Грайндхаус: Планета страха Grindhouse: Planet Terror бесплатно без регистрации torrent

Статистика раздачи
Размер:  248 MB   |    Зарегистрирован:  7 лет 4 месяца   |    .torrent скачан:  38 раз   |   
Раздают:  1  
   
загрузка...
 
Автор Сообщение

Galfimbul

avatar Galfimbul


Грайндхаус: Планета страха
Grindhouse: Planet Terror
Robert Rodriguez, VA

Жанр: Soundtrack
Год выпуска диска: 2007
Производитель диска: Varèse Sarabande
Аудио кодек: FLAC
Тип рипа: tracks+.cue
Битрейт аудио: lossless
Продолжительность: 00:43:53
Трэклист:
01 - Robert Rodriguez - Grindhouse [Main Titles]
02 - Robert Rodriguez & Carl Thiel - Doc Block
03 - Robert Rodriguez & Graeme Revell - The Sickos
04 - Rose McGowan - You Belong To Me
05 - Robert Rodriguez & Rick Del Castillo - Go Go Not Cry Cry
06 - Graeme Revell & Robert Rodriguez - Hospital Epidemic
07 - Rose McGowan - Useless Talent #32
08 - Robert Rodriguez & Carl Thiel - His Prescription...Pain
09 - Robert Rodriguez - Cherry Darling
10 - Robert Rodriguez - The Grindhouse Blues
11 - Robert Rodriguez - El Wray
12 - Robert Rodriguez - Police Station Assault
13 - Robert Rodriguez & Carl Thiel - Dakota
14 - Robert Rodriguez - Zero To Fifty In Four
15 - Robert Rodriguez - Fury Road
16 - Graeme Revell & Robert Rodriguez - Helicopter Sicko Chopper
17 - Robert Rodriguez & George Oldziey - The Ring In The Jacket
18 - Robert Rodriguez & Rick Del Castillo - Killer Legs
19 - Graeme Revell & Robert Rodriguez - Melting Member
20 - Nouvelle Vague - Too Drunk To
21 - Chingon - Cherry's Dance Of Death
22 - Rose McGowan - Two Against The World
 
Exact Audio Copy V0.99 prebeta 4 from 23. January 2008

EAC extraction logfile from 12. August 2008, 22:43

Various / Soundtrack - Grindhouse: Planet Terror

Used drive : _NEC DVD+-RW ND-6650A Adapter: 1 ID: 0

Read mode : SecureUtilize accurate stream : YesDefeat audio cache : YesMake use of C2 pointers : No

Read offset correction : 48Overread into Lead-In and Lead-Out : NoFill up missing offset samples with silence : YesDelete leading and trailing silent blocks : NoNull samples used in CRC calculations : YesUsed interface : Native Win32 interface for Win NT & 2000Gap handling : Appended to previous track

Used output format : User Defined EncoderSelected bitrate : 320 kBit/sQuality : HighAdd ID3 tag : NoCommand line compressor : C:\Program Files\Exact Audio Copy\FLAC\FLAC.EXEAdditional command line options : -6 -V -T "ARTIST=%a" -T "TITLE=%t" -T "ALBUM=%g" -T "DATE=%y" -T "TRACKNUMBER=%n" -T "GENRE=%m" -T "COMMENT=%e" %s -o %d

TOC of the extracted CD

Track | Start | Length | Start sector | End sector --------------------------------------------------------- 1 | 0:00.00 | 3:30.55 | 0 | 15804 2 | 3:30.55 | 2:03.22 | 15805 | 25051 3 | 5:34.02 | 1:39.69 | 25052 | 32545 4 | 7:13.71 | 2:15.08 | 32546 | 42678 5 | 9:29.04 | 1:09.36 | 42679 | 47889 6 | 10:38.40 | 1:16.73 | 47890 | 53662 7 | 11:55.38 | 3:11.15 | 53663 | 68002 8 | 15:06.53 | 0:55.11 | 68003 | 72138 9 | 16:01.64 | 1:01.30 | 72139 | 76743 10 | 17:03.19 | 3:01.44 | 76744 | 90362 11 | 20:04.63 | 1:18.33 | 90363 | 96245 12 | 21:23.21 | 1:33.32 | 96246 | 103252 13 | 22:56.53 | 2:27.28 | 103253 | 114305 14 | 25:24.06 | 1:35.45 | 114306 | 121475 15 | 26:59.51 | 2:03.00 | 121476 | 130700 16 | 29:02.51 | 1:22.43 | 130701 | 136893 17 | 30:25.19 | 1:34.20 | 136894 | 143963 18 | 31:59.39 | 2:14.28 | 143964 | 154041 19 | 34:13.67 | 1:51.54 | 154042 | 162420 20 | 36:05.46 | 2:12.49 | 162421 | 172369 21 | 38:18.20 | 3:26.59 | 172370 | 187878 22 | 41:45.04 | 2:08.01 | 187879 | 197479

Track 1

Filename C:\EACRips\Soundtrack - Grindhouse- Planet Terror - 2007\01 - ROBERT RODRIGUEZ - Grindhouse (Main Titles).wav

Pre-gap length 0:00:02.00

Peak level 90.1 % Track quality 100.0 % Test CRC C9A9AAA9 Copy CRC C9A9AAA9 Accurately ripped (confidence 6) [74E2CD9A] Copy OK

Track 2

Filename C:\EACRips\Soundtrack - Grindhouse- Planet Terror - 2007\02 - ROBERT RODRIGUEZ - Doc Block.wav

Pre-gap length 0:00:00.02

Peak level 90.3 % Track quality 100.0 % Test CRC B70B47FF Copy CRC B70B47FF Accurately ripped (confidence 6) [1A6CE832] Copy OK

Track 3

Filename C:\EACRips\Soundtrack - Grindhouse- Planet Terror - 2007\03 - ROBERT RODRIGUEZ - The Sickos.wav

Peak level 90.1 % Track quality 99.8 % Test CRC 67690E01 Copy CRC 67690E01 Accurately ripped (confidence 6) [122742C7] Copy OK

Track 4

Filename C:\EACRips\Soundtrack - Grindhouse- Planet Terror - 2007\04 - ROSE McGOWAN - You Belong To Me.wav

Peak level 72.9 % Track quality 100.0 % Test CRC 4EB5904B Copy CRC 4EB5904B Accurately ripped (confidence 6) [A88C68B0] Copy OK

Track 5

Filename C:\EACRips\Soundtrack - Grindhouse- Planet Terror - 2007\05 - ROBERT RODRIGUEZ - Go Go Not Cry Cry.wav

Peak level 94.3 % Track quality 100.0 % Test CRC F86ABF79 Copy CRC F86ABF79 Accurately ripped (confidence 6) [0C19C54E] Copy OK

Track 6

Filename C:\EACRips\Soundtrack - Grindhouse- Planet Terror - 2007\06 - ROBERT RODRIGUEZ - Hospital Epidemic.wav

Peak level 84.1 % Track quality 100.0 % Test CRC CC198BBA Copy CRC CC198BBA Accurately ripped (confidence 6) [5F27FDA5] Copy OK

Track 7

Filename C:\EACRips\Soundtrack - Grindhouse- Planet Terror - 2007\07 - ROSE McGOWAN - Useless Talent #32.wav

Peak level 90.1 % Track quality 100.0 % Test CRC 283092AD Copy CRC 283092AD Accurately ripped (confidence 6) [2C2290BD] Copy OK

Track 8

Filename C:\EACRips\Soundtrack - Grindhouse- Planet Terror - 2007\08 - ROBERT RODRIGUEZ - His Prescription ... Pain.wav

Peak level 90.1 % Track quality 99.8 % Test CRC DCBF6E2E Copy CRC DCBF6E2E Accurately ripped (confidence 6) [6B959C75] Copy OK

Track 9

Filename C:\EACRips\Soundtrack - Grindhouse- Planet Terror - 2007\09 - ROBERT RODRIGUEZ - Cherry Darling.wav

Peak level 69.3 % Track quality 100.0 % Test CRC 0F336C9E Copy CRC 0F336C9E Accurately ripped (confidence 6) [27D6FC8B] Copy OK

Track 10

Filename C:\EACRips\Soundtrack - Grindhouse- Planet Terror - 2007\10 - ROBERT RODRIGUEZ - The Grindhouse Blues.wav

Peak level 71.5 % Track quality 100.0 % Test CRC F4D2EA15 Copy CRC F4D2EA15 Accurately ripped (confidence 6) [F8D17895] Copy OK

Track 11

Filename C:\EACRips\Soundtrack - Grindhouse- Planet Terror - 2007\11 - ROBERT RODRIGUEZ - El Wray.wav

Peak level 90.1 % Track quality 100.0 % Test CRC 7530CC64 Copy CRC 7530CC64 Accurately ripped (confidence 6) [1A1AC9B0] Copy OK

Track 12

Filename C:\EACRips\Soundtrack - Grindhouse- Planet Terror - 2007\12 - ROBERT RODRIGUEZ - Police Station Assault.wav

Peak level 90.1 % Track quality 100.0 % Test CRC 9C796CE4 Copy CRC 9C796CE4 Accurately ripped (confidence 6) [0CD0426E] Copy OK

Track 13

Filename C:\EACRips\Soundtrack - Grindhouse- Planet Terror - 2007\13 - ROBERT RODRIGUEZ - Dakota.wav

Pre-gap length 0:00:00.04

Peak level 95.4 % Track quality 100.0 % Test CRC 3FD24C79 Copy CRC 3FD24C79 Accurately ripped (confidence 6) [1DBD1B7B] Copy OK

Track 14

Filename C:\EACRips\Soundtrack - Grindhouse- Planet Terror - 2007\14 - ROBERT RODRIGUEZ - Zero To Fifty In Four.wav

Peak level 90.1 % Track quality 100.0 % Test CRC 216023BF Copy CRC 216023BF Accurately ripped (confidence 6) [36EAF201] Copy OK

Track 15

Filename C:\EACRips\Soundtrack - Grindhouse- Planet Terror - 2007\15 - ROBERT RODRIGUEZ - Fury Road.wav

Peak level 90.1 % Track quality 100.0 % Test CRC DB6FE914 Copy CRC DB6FE914 Accurately ripped (confidence 6) [A857BAE8] Copy OK

Track 16

Filename C:\EACRips\Soundtrack - Grindhouse- Planet Terror - 2007\16 - ROBERT RODRIGUEZ - Helicopter Sicko Chopper.wav

Peak level 74.9 % Track quality 100.0 % Test CRC 0FCDAC77 Copy CRC 0FCDAC77 Accurately ripped (confidence 6) [7A9073DE] Copy OK

Track 17

Filename C:\EACRips\Soundtrack - Grindhouse- Planet Terror - 2007\17 - ROBERT RODRIGUEZ - The Ring In The Jacket.wav

Pre-gap length 0:00:00.02

Peak level 69.0 % Track quality 100.0 % Test CRC A7E7EC4D Copy CRC A7E7EC4D Accurately ripped (confidence 6) [39BFA7DD] Copy OK

Track 18

Filename C:\EACRips\Soundtrack - Grindhouse- Planet Terror - 2007\18 - ROBERT RODRIGUEZ - Killer Legs.wav

Peak level 90.1 % Track quality 100.0 % Test CRC 83FADB1A Copy CRC 83FADB1A Accurately ripped (confidence 6) [D24D385B] Copy OK

Track 19

Filename C:\EACRips\Soundtrack - Grindhouse- Planet Terror - 2007\19 - ROBERT RODRIGUEZ - Melting Member.wav

Peak level 94.3 % Track quality 100.0 % Test CRC 48A1EF72 Copy CRC 48A1EF72 Accurately ripped (confidence 6) [027A6E62] Copy OK

Track 20

Filename C:\EACRips\Soundtrack - Grindhouse- Planet Terror - 2007\20 - NOUVELLE VAGUE - Too Drunk to Fuck.wav

Peak level 59.4 % Track quality 100.0 % Test CRC 84FB9C5C Copy CRC 84FB9C5C Accurately ripped (confidence 6) [3110F75F] Copy OK

Track 21

Filename C:\EACRips\Soundtrack - Grindhouse- Planet Terror - 2007\21 - CHINGON - Cherry's Dance Of Death.wav

Peak level 95.4 % Track quality 100.0 % Test CRC 06970D89 Copy CRC 06970D89 Accurately ripped (confidence 6) [400B2C4D] Copy OK

Track 22

Filename C:\EACRips\Soundtrack - Grindhouse- Planet Terror - 2007\22 - ROSE McGOWAN - Two Against the World.wav

Peak level 56.7 % Track quality 100.0 % Test CRC 140DD0E2 Copy CRC 140DD0E2 Accurately ripped (confidence 6) [7E705E38] Copy OK

All tracks accurately ripped

No errors occurred

End of status report


Трекер:  [ 07-Июл-2011 23:17 ]

  

Скачать .torrent

Размер .torrent файла 12 KB


Размер: 248 MB
Хэш (hash) релиза: 366fbfcd1bea292c5f1c52334f8d3be2f2332e32

Торренты, похожие на Грайндхаус: Планета страха Grindhouse: Planet Terror скачать торрент

Форум Название Автор Размер S L Добавлен
Саундтреки к фильмам и мультфильмам (mp3) ·· (Soundtrack) Grindhouse: Planet Terror / Грайндхаус: Планета страха - 2007, MP3, 320 Galfimbul 153678188147 MB 0 0 1292265572

21:39

13-Дек-10

Еще никто не оставлял запись к записи скачать торрент Грайндхаус: Планета страха Grindhouse: Planet Terror . Будь первым!

!Обратная связь