Скачать через торрент музыку Garden State бесплатно без регистрации torrent

Статистика раздачи
Размер:  316 MB   |    Зарегистрирован:  6 лет 9 месяцев   |    .torrent скачан:  38 раз   |   
Раздают:  1  
   
загрузка...
 
Автор Сообщение

Galfimbul

avatar Galfimbul


Garden State (Страна садов) - Music From The Motion Picture

Жанр: Soundtrack
Год выпуска диска: 2004
Производитель диска: US
Аудио кодек: FLAC
Тип рипа: tracks+.cue
Битрейт аудио: lossless
Продолжительность: 00:53:02

Трэклист:

01. Coldplay - Don't Panic (2:17)
02. The Shins - Caring Is Creepy (3:20)
03. Zero 7 - In The Waiting Line (4:34)
04. The Shins - New Slang (3:51)
05. Colin Hay - I Just Don't Think I'll Get Over You (5:18)
06. Cary Brothers - Blue Eyes (4:19)
07. Remy Zero - Fair (3:55)
08. Nick Drake - One Of These Things First (4:50)
09. Thievery Corporation - Lebanese Blonde (4:47)
10. Simon & Garfunkel - The Only Living Boy In New York (3:59)
11. Iron And Wine - Such Great Heights (4:13)
12. Frou Frou - Let Go (4:13)
13. Bonnie Somerville - Winding Road (3:27)
 
 
EAC extraction logfile from 25. May 2008, 8:24 for CDVarious / Garden State - Music From The Motion Picture

Used drive : TSSTcorpCDDVDW SH-S202G Adapter: 0 ID: 0Read mode : Secure with NO C2, accurate stream, disable cacheRead offset correction : 6Overread into Lead-In and Lead-Out : No

Used output format : C:\Program Files (x86)\Exact Audio Copy\flac.exe (User Defined Encoder) 256 kBit/s Additional command line options : -8 -A tukey(0.25) -A gauss(0.1875) -b 4096 -V -T "artist=%a" -T "title=%t" -T "album=%g" -T "date=%y" -T "tracknumber=%n" -T "genre=%m" %s --sector-align

Other options : Fill up missing offset samples with silence : Yes Delete leading and trailing silent blocks : No Native Win32 interface for Win NT & 2000

Track 1 Filename F:\Azureus Downloads\Garden State\01 - Don't Panic - Don't Panic.wav

Pre-gap length 0:00:02.00

Peak level 94.0 % Track quality 100.0 % Test CRC 235A00A5 Copy CRC 235A00A5 Copy OK

Track 2 Filename F:\Azureus Downloads\Garden State\02 - Caring Is Creepy - Caring Is Creepy.wav

Pre-gap length 0:00:00.28

Peak level 100.0 % Track quality 100.0 % Test CRC 3B75A085 Copy CRC 3B75A085 Copy OK

Track 3 Filename F:\Azureus Downloads\Garden State\03 - In The Waiting Line - In The Waiting Line.wav

Pre-gap length 0:00:00.97

Peak level 97.9 % Track quality 100.0 % Test CRC DA53CABF Copy CRC DA53CABF Copy OK

Track 4 Filename F:\Azureus Downloads\Garden State\04 - New Slang - New Slang.wav

Pre-gap length 0:00:01.98

Peak level 100.0 % Track quality 99.9 % Test CRC 0E2878FE Copy CRC 0E2878FE Copy OK

Track 5 Filename F:\Azureus Downloads\Garden State\05 - I Just Don't Think I'll Ever Get Over You - I Just Don't Think I'll Ever Get Over You.wav

Pre-gap length 0:00:01.98

Peak level 100.0 % Track quality 99.9 % Test CRC E3B55263 Copy CRC E3B55263 Copy OK

Track 6 Filename F:\Azureus Downloads\Garden State\06 - Blue Eyes - Blue Eyes.wav

Pre-gap length 0:00:00.38

Peak level 91.9 % Track quality 100.0 % Test CRC 48076BAE Copy CRC 48076BAE Copy OK

Track 7 Filename F:\Azureus Downloads\Garden State\07 - Fair - Fair.wav

Pre-gap length 0:00:01.14

Peak level 97.7 % Track quality 100.0 % Test CRC F9FD5139 Copy CRC F9FD5139 Copy OK

Track 8 Filename F:\Azureus Downloads\Garden State\08 - One Of These Things First - One Of These Things First.wav

Pre-gap length 0:00:00.96

Peak level 100.0 % Track quality 99.9 % Test CRC 72053BA3 Copy CRC 72053BA3 Copy OK

Track 9 Filename F:\Azureus Downloads\Garden State\09 - Lebanese Blonde - Lebanese Blonde.wav

Pre-gap length 0:00:00.98

Peak level 90.8 % Track quality 100.0 % Test CRC 1716E9BB Copy CRC 1716E9BB Copy OK

Track 10 Filename F:\Azureus Downloads\Garden State\10 - The Only Living Boy In New York - The Only Living Boy In New York.wav

Pre-gap length 0:00:00.34

Peak level 100.0 % Track quality 100.0 % Test CRC EA9F64F1 Copy CRC EA9F64F1 Copy OK

Track 11 Filename F:\Azureus Downloads\Garden State\11 - Such Great Heights - Such Great Heights.wav

Pre-gap length 0:00:01.98

Peak level 86.1 % Track quality 100.0 % Test CRC A21AE1D9 Copy CRC A21AE1D9 Copy OK

Track 12 Filename F:\Azureus Downloads\Garden State\12 - Let Go - Let Go.wav

Pre-gap length 0:00:01.98

Peak level 86.4 % Track quality 100.0 % Test CRC 3C17AA95 Copy CRC 3C17AA95 Copy OK

Track 13 Filename F:\Azureus Downloads\Garden State\13 - Winding Road - Winding Road.wav

Pre-gap length 0:00:01.17

Peak level 100.0 % Track quality 100.0 % Test CRC 84492207 Copy CRC 84492207 Copy OK

No errors occured

End of status report
AUDIOCHECKER v2.0 beta (build 457) - by Dester - opdester@freemail.hu
~~~~~~~~~~~~~~~~~~~~~~~~~~~~~~~~~~
-=== DO NOT EDIT THIS FILE! ===-

Path: ...\Garden State OST (2004) (flac)

01 -=- 01. Coldplay - Don't Panic.flac -=- CDDA (100%)
02 -=- 02. The Shins - Caring Is Creepy.flac -=- CDDA (100%)
03 -=- 03. Zero 7 - In The Waiting Line.flac -=- CDDA (100%)
04 -=- 04. The Shins - New Slang.flac -=- CDDA (100%)
05 -=- 05. Colin Hay - I Just Don't Think I'll Get Over You.flac -=- CDDA (100%)
06 -=- 06. Cary Brothers - Blue Eyes.flac -=- CDDA (100%)
07 -=- 07. Remy Zero - Fair.flac -=- CDDA (100%)
08 -=- 08. Nick Drake - One Of These Things First.flac -=- CDDA (100%)
09 -=- 09. Thievery Corporation - Lebanese Blonde.flac -=- CDDA (100%)
10 -=- 10. Simon & Garfunkel - The Only Living Boy In New York.flac -=- CDDA (100%)
11 -=- 11. Iron And Wine - Such Great Heights.flac -=- MPEG (100%)
12 -=- 12. Frou Frou - Let Go.flac -=- CDDA (100%)
13 -=- 13. Bonnie Somerville - Winding Road.flac -=- CDDA (100%)

Summary 92,31% CDDA

231803396


Трекер:  [ 07-Июл-2011 23:16 ]

  

Скачать .torrent

Размер .torrent файла 14 KB


Размер: 316 MB
Хэш (hash) релиза: 9e4a5b56a11c18a382a1b0e41c0d6bf47ffcc0b8

Торренты, похожие на Garden State скачать торрент

Форум Название Автор Размер S L Добавлен
Саундтреки к фильмам и мультфильмам (mp3) ·· (Soundtrack) Garden State (Страна садов) - Music From The Motion Picture - 2004, MP3 (tracks), 320 kbps Galfimbul 127661027122 MB 0 0 1292265288

21:34

13-Дек-10

Rосk | Mеtаl | Аltеrnаtivе, Рunk, Indереndеnt (mр3) ·· (Indie Rock) Deep State - Thought Garden - 2017, MP3, 320 kbps Galfimbul 7518021672 MB 0 0 1506371990

23:39

25-Сен-17

Еще никто не оставлял запись к записи скачать торрент Garden State . Будь первым!

!Обратная связь