Скачать через торрент музыку Krister Linder - Metropia Метропия - 2009, FLAC бесплатно без регистрации torrent

Статистика раздачи
Размер:  245 MB   |    Зарегистрирован:  7 лет 1 месяц   |    .torrent скачан:  39 раз   |   
Раздают:  1  
   
загрузка...
 
Автор Сообщение

Galfimbul

avatar Galfimbul


Krister Linder - Metropia

Жанр: Score/Ambient/Downtempo
Год выпуска диска: 2009
Производитель диска: Sweden Ghostfriend / X5 Music Group
Аудио кодек: FLAC
Тип рипа: image+.cue
Битрейт аудио: lossless
Продолжительность: 51:41

Metropia (Motion Picture Soundtrack):

01. Sky Diving (2:57)
02. Look at Me (8:08)
03. Tell Me What I've Done (1:44)
04. You Were Just Thinking (6:42)
05. An Almost Weightless Fall From Grace (3:20)
06. End Station Express (1:28)
07. Shampoo And Brain Wash (2:29)
08. Have I Lost You (1:20)
09. Wrong Hands (2:13)
10. I Have a Plan to Put an End to All of This (2:44)
11. Five Minutes Ago (6:04)
12. An Instrument of Harm (4:08)
13. The Hermit [Metropia Remix] (4:27)
14. Dare (3:57)
 
Exact Audio Copy V0.99 prebeta 5 from 4. May 2009

EAC extraction logfile from 24. January 2010, 21:28

Krister Linder / Metropia - Motion Picture Soundtrack

Used drive : ASUS DRW-1608P Adapter: 2 ID: 1

Read mode : SecureUtilize accurate stream : YesDefeat audio cache : YesMake use of C2 pointers : No

Read offset correction : 48Overread into Lead-In and Lead-Out : NoFill up missing offset samples with silence : YesDelete leading and trailing silent blocks : NoNull samples used in CRC calculations : YesUsed interface : Installed external ASPI interface

Used output format : User Defined EncoderSelected bitrate : 1024 kBit/sQuality : HighAdd ID3 tag : NoCommand line compressor : C:\Program Files (x86)\Exact Audio Copy\Flac\flac.exeAdditional command line options : -5 -V -T "ARTIST=%a" -T "TITLE=%t" -T "ALBUM=%g" -T "DATE=%y" -T "TRACKNUMBER=%n" -T "GENRE=%m" -T "COMMENT=EAC FLAC -5" %s

TOC of the extracted CD

Track | Start | Length | Start sector | End sector --------------------------------------------------------- 1 | 0:00.00 | 2:57.18 | 0 | 13292 2 | 2:57.18 | 8:08.18 | 13293 | 49910 3 | 11:05.36 | 1:43.47 | 49911 | 57682 4 | 12:49.08 | 6:42.03 | 57683 | 87835 5 | 19:31.11 | 3:20.03 | 87836 | 102838 6 | 22:51.14 | 1:27.63 | 102839 | 109426 7 | 24:19.02 | 2:28.73 | 109427 | 120599 8 | 26:48.00 | 1:20.23 | 120600 | 126622 9 | 28:08.23 | 2:13.31 | 126623 | 136628 10 | 30:21.54 | 2:44.34 | 136629 | 148962 11 | 33:06.13 | 6:04.04 | 148963 | 176266 12 | 39:10.17 | 4:07.50 | 176267 | 194841 13 | 43:17.67 | 4:26.72 | 194842 | 214863 14 | 47:44.64 | 3:56.52 | 214864 | 232615

Range status and errors

Selected range

Filename F:\2009 - Metropia Motion Picture Soundtrack\Krister Linder - Metropia - Motion Picture Soundtrack.wav

Peak level 98.8 % Range quality 100.0 % Test CRC 69695BEC Copy CRC 69695BEC Copy OK

No errors occurred

AccurateRip summary

Track 1 not present in databaseTrack 2 not present in databaseTrack 3 not present in databaseTrack 4 not present in databaseTrack 5 not present in databaseTrack 6 not present in databaseTrack 7 not present in databaseTrack 8 not present in databaseTrack 9 not present in databaseTrack 10 not present in databaseTrack 11 not present in databaseTrack 12 not present in databaseTrack 13 not present in databaseTrack 14 not present in database

None of the tracks are present in the AccurateRip database

End of status report
Stockholm International Filmfestival awards Krister Linder the “JAMESON MUSIC AWARD" for Best Music in Film 2009
for his score in Tarik Saleh's animation noir paranoia epic METROPIA.


Трекер:  [ 07-Июл-2011 23:15 ]

  

Скачать .torrent

Размер .torrent файла 20 KB


Размер: 245 MB
Хэш (hash) релиза: 8dd3c2fc75e4dc098492c4dfd1fbd3e826479e99

Еще никто не оставлял запись к записи скачать торрент Krister Linder - Metropia Метропия - 2009, FLAC . Будь первым!

!Обратная связь