Скачать через торрент музыку The Bourne Supremacy Превосходство Борна бесплатно без регистрации torrent

Статистика раздачи
Размер:  287 MB   |    Зарегистрирован:  6 лет 9 месяцев   |    .torrent скачан:  51 раз   |   
Раздают:  1  
   
загрузка...
 
Автор Сообщение

Galfimbul

avatar Galfimbul


The Bourne Supremacy / Превосходство Борна

Жанр: Score
Композитор: John Powell
Год выпуска диска: 2004
Производитель диска: USA
Аудио кодек: FLAC
Тип рипа: tracks+.cue
Битрейт аудио: lossless
Продолжительность: 48:29
Источник: What.CD

01 - John Powell - Goa (3:00)
02 - John Powell - The Drop (3:43)
03 - John Powell - Funeral Pyre (2:21)
04 - John Powell - Gathering Data (1:55)
05 - John Powell - Nach Deutschland (2:40)
06 - John Powell - To The Roof (5:32)
07 - John Powell - New Memories (2:48)
08 - John Powell - Berlin Foot Chase (5:16)
09 - John Powell - Alexander Platz / Abbotts Confesses (3:35)
10 - John Powell - Moscow Wind Up (6:55)
11 - John Powell - Bim Bam Smash (5:09)
12 - John Powell - Atonement (1:36)
13 - Moby - Extreme Ways (3:57)
 
Exact Audio Copy V0.99 prebeta 5 from 4. May 2009

EAC extraction logfile from 19. August 2009, 23:03

John Powell / The Bourne Supremacy

Used drive : Optiarc BD ROM BC-5500S Adapter: 1 ID: 0

Read mode : SecureUtilize accurate stream : YesDefeat audio cache : YesMake use of C2 pointers : No

Read offset correction : 48Overread into Lead-In and Lead-Out : NoFill up missing offset samples with silence : YesDelete leading and trailing silent blocks : NoNull samples used in CRC calculations : NoUsed interface : Installed external ASPI interfaceGap handling : Appended to previous track

Used output format : User Defined EncoderSelected bitrate : 768 kBit/sQuality : HighAdd ID3 tag : NoCommand line compressor : C:\Program Files\Exact Audio Copy\FLAC\FLAC.EXEAdditional command line options : -6 -V -T "ARTIST=%a" -T "TITLE=%t" -T "ALBUM=%g" -T "DATE=%y" -T "TRACKNUMBER=%n" -T "GENRE=%m" -T "COMMENT=%e" %s -o %d

TOC of the extracted CD

Track | Start | Length | Start sector | End sector --------------------------------------------------------- 1 | 0:00.00 | 3:00.05 | 0 | 13504 2 | 3:00.05 | 3:42.66 | 13505 | 30220 3 | 6:42.71 | 2:21.36 | 30221 | 40831 4 | 9:04.32 | 1:54.39 | 40832 | 49420 5 | 10:58.71 | 2:40.36 | 49421 | 61456 6 | 13:39.32 | 5:32.29 | 61457 | 86385 7 | 19:11.61 | 2:48.19 | 86386 | 99004 8 | 22:00.05 | 5:16.30 | 99005 | 122734 9 | 27:16.35 | 3:34.60 | 122735 | 138844 10 | 30:51.20 | 6:55.08 | 138845 | 169977 11 | 37:46.28 | 5:09.14 | 169978 | 193166 12 | 42:55.42 | 1:35.41 | 193167 | 200332 13 | 44:31.08 | 3:57.30 | 200333 | 218137

Track 1

Filename The Bourne Supremacy\01 - Goa.wav

Pre-gap length 0:00:02.00

Peak level 97.7 % Track quality 100.0 % Test CRC F6D56E7F Copy CRC F6D56E7F Accurately ripped (confidence 11) [62E76DF0] Copy OK

Track 2

Filename The Bourne Supremacy\02 - The Drop.wav

Peak level 97.7 % Track quality 100.0 % Test CRC 31E15129 Copy CRC 31E15129 Accurately ripped (confidence 11) [8456BF2E] Copy OK

Track 3

Filename The Bourne Supremacy\03 - Funeral Pyre.wav

Peak level 94.4 % Track quality 100.0 % Test CRC 26630AAF Copy CRC 26630AAF Accurately ripped (confidence 11) [34DB9142] Copy OK

Track 4

Filename The Bourne Supremacy\04 - Gathering Data.wav

Peak level 94.3 % Track quality 100.0 % Test CRC A7AD794D Copy CRC A7AD794D Accurately ripped (confidence 11) [ACC88878] Copy OK

Track 5

Filename The Bourne Supremacy\05 - Nach Deutschland.wav

Peak level 97.7 % Track quality 100.0 % Test CRC F3B66B2C Copy CRC F3B66B2C Accurately ripped (confidence 11) [1052C834] Copy OK

Track 6

Filename The Bourne Supremacy\06 - To The Roof.wav

Peak level 94.4 % Track quality 99.9 % Test CRC 418B1BB8 Copy CRC 418B1BB8 Accurately ripped (confidence 11) [03DC961E] Copy OK

Track 7

Filename The Bourne Supremacy\07 - New Memories.wav

Peak level 29.3 % Track quality 100.0 % Test CRC EFF2E9A9 Copy CRC EFF2E9A9 Accurately ripped (confidence 11) [66A9DFDE] Copy OK

Track 8

Filename The Bourne Supremacy\08 - Berlin Foot Chase.wav

Peak level 94.3 % Track quality 100.0 % Test CRC FBBCC3C8 Copy CRC FBBCC3C8 Accurately ripped (confidence 11) [50A2D0C8] Copy OK

Track 9

Filename The Bourne Supremacy\09 - Alexander Platz - Abbotts Confesses.wav

Peak level 94.4 % Track quality 100.0 % Test CRC 9C29600E Copy CRC 9C29600E Accurately ripped (confidence 11) [6A653F2D] Copy OK

Track 10

Filename The Bourne Supremacy\10 - Moscow Wind Up.wav

Peak level 94.4 % Track quality 100.0 % Test CRC 7EDA129B Copy CRC 7EDA129B Accurately ripped (confidence 11) [7FC43894] Copy OK

Track 11

Filename The Bourne Supremacy\11 - Bim Bam Smash.wav

Peak level 97.7 % Track quality 100.0 % Test CRC C00489BB Copy CRC C00489BB Accurately ripped (confidence 11) [11879CB9] Copy OK

Track 12

Filename The Bourne Supremacy\12 - Atonement.wav

Peak level 57.3 % Track quality 100.0 % Test CRC 5011CF77 Copy CRC 5011CF77 Accurately ripped (confidence 11) [17481D85] Copy OK

Track 13

Filename The Bourne Supremacy\13 - Extreme Ways.wav

Pre-gap length 0:00:02.71

Peak level 61.5 % Track quality 100.0 % Test CRC 14665153 Copy CRC 14665153 Accurately ripped (confidence 13) [EE77FBA4] Copy OK

All tracks accurately ripped

No errors occurred

End of status report
 
REM GENRE SoundtrackREM DATE 2004REM DISCID A90B5C0DREM COMMENT "ExactAudioCopy v0.99pb5"PERFORMER "John Powell"TITLE "The Bourne Supremacy"FILE "01 - Goa.wav" WAVE TRACK 01 AUDIO TITLE "Goa" PERFORMER "John Powell" INDEX 01 00:00:00FILE "02 - The Drop.wav" WAVE TRACK 02 AUDIO TITLE "The Drop" PERFORMER "John Powell" INDEX 01 00:00:00FILE "03 - Funeral Pyre.wav" WAVE TRACK 03 AUDIO TITLE "Funeral Pyre" PERFORMER "John Powell" INDEX 01 00:00:00FILE "04 - Gathering Data.wav" WAVE TRACK 04 AUDIO TITLE "Gathering Data" PERFORMER "John Powell" INDEX 01 00:00:00FILE "05 - Nach Deutschland.wav" WAVE TRACK 05 AUDIO TITLE "Nach Deutschland" PERFORMER "John Powell" INDEX 01 00:00:00FILE "06 - To The Roof.wav" WAVE TRACK 06 AUDIO TITLE "To The Roof" PERFORMER "John Powell" INDEX 01 00:00:00FILE "07 - New Memories.wav" WAVE TRACK 07 AUDIO TITLE "New Memories" PERFORMER "John Powell" INDEX 01 00:00:00FILE "08 - Berlin Foot Chase.wav" WAVE TRACK 08 AUDIO TITLE "Berlin Foot Chase" PERFORMER "John Powell" INDEX 01 00:00:00FILE "09 - Alexander Platz - Abbotts Confesses.wav" WAVE TRACK 09 AUDIO TITLE "Alexander Platz - Abbotts Confesses" PERFORMER "John Powell" INDEX 01 00:00:00FILE "10 - Moscow Wind Up.wav" WAVE TRACK 10 AUDIO TITLE "Moscow Wind Up" PERFORMER "John Powell" INDEX 01 00:00:00FILE "11 - Bim Bam Smash.wav" WAVE TRACK 11 AUDIO TITLE "Bim Bam Smash" PERFORMER "John Powell" INDEX 01 00:00:00FILE "12 - Atonement.wav" WAVE TRACK 12 AUDIO TITLE "Atonement" PERFORMER "John Powell" INDEX 01 00:00:00 TRACK 13 AUDIO TITLE "Extreme Ways" PERFORMER "John Powell" INDEX 00 01:32:45FILE "13 - Extreme Ways.wav" WAVE INDEX 01 00:00:00


Трекер:  [ 07-Июл-2011 23:15 ]

  

Скачать .torrent

Размер .torrent файла 13 KB


Размер: 287 MB
Хэш (hash) релиза: 1b103b2fcec3f07b5850fdb5b391f5389a17c9d9

Еще никто не оставлял запись к записи скачать торрент The Bourne Supremacy Превосходство Борна . Будь первым!

!Обратная связь