Скачать через торрент музыку Wanted Особо опасен - 2008, APE бесплатно без регистрации torrent

Статистика раздачи
Размер:  264 MB   |    Зарегистрирован:  7 лет 1 месяц   |    .torrent скачан:  42 раза   |   
Раздают:  1  
   
загрузка...
 
Автор Сообщение

Galfimbul

avatar Galfimbul


Wanted / Особо опасен

Жанр: OST
Год выпуска диска: 2008
Производитель диска: USA
Аудио кодек: APE
Тип рипа: image+.cue
Битрейт аудио: lossless
Продолжительность: 48:13
Трэклист:
01. The Little Things
02. Success Montage
03. Fraternity Suite
04. Wesley's Office Life
05. The Scheme
06. Fox In Control
07. Welcome To The Fraternity
08. Fox's Story
09. Exterminator Beat
10. Rats
11. The Train
12. Revenge
13. Fox's Decision
14. Breaking The Code
15. Fate
Exact Audio Copy V0.99 prebeta 4 from 23. January 2008

EAC extraction logfile from 30. June 2008, 22:08

Danny Elfman / Wanted

Used drive : HL-DT-STCD-RW GCE-8523B Adapter: 1 ID: 1

Read mode : Secure
Utilize accurate stream : Yes
Defeat audio cache : Yes
Make use of C2 pointers : No

Read offset correction : 6
Overread into Lead-In and Lead-Out : No
Fill up missing offset samples with silence : Yes
Delete leading and trailing silent blocks : No
Null samples used in CRC calculations : Yes
Used interface : Installed external ASPI interface

Used output format : Internal WAV Routines
Sample format : 44.100 Hz; 16 Bit; Stereo

TOC of the extracted CD

Track | Start | Length | Start sector | End sector
---------------------------------------------------------
1 | 0:00.00 | 3:26.62 | 0 | 15511
2 | 3:26.62 | 3:32.08 | 15512 | 31419
3 | 6:58.70 | 3:28.40 | 31420 | 47059
4 | 10:27.35 | 5:15.38 | 47060 | 70722
5 | 15:42.73 | 1:44.60 | 70723 | 78582
6 | 17:27.58 | 2:16.63 | 78583 | 88845
7 | 19:44.46 | 4:28.43 | 88846 | 108988
8 | 24:13.14 | 3:29.49 | 108989 | 124712
9 | 27:42.63 | 2:52.15 | 124713 | 137627
10 | 30:35.03 | 3:28.57 | 137628 | 153284
11 | 34:03.60 | 3:59.02 | 153285 | 171211
12 | 38:02.62 | 4:33.06 | 171212 | 191692
13 | 42:35.68 | 2:29.62 | 191693 | 202929
14 | 45:05.55 | 1:21.65 | 202930 | 209069
15 | 46:27.45 | 1:46.22 | 209070 | 217041

Range status and errors

Selected range

Filename C:\Documents and Settings\Ricardo\Mis documentos\Mi mъsica\Danny Elfman - Wanted.wav

Peak level 98.8 %
Range quality 100.0 %
Copy CRC 9ED50C25
Copy OK

No errors occurred

End of status report
Доп. информация: Найдено в сети emule

Трекер:  [ 07-Июл-2011 23:14 ]

  

Скачать .torrent

Размер .torrent файла 11 KB


Размер: 264 MB
Хэш (hash) релиза: a0cca00502939e97de3c9d0752ad9b939d095b87

Еще никто не оставлял запись к записи скачать торрент Wanted Особо опасен - 2008, APE . Будь первым!

!Обратная связь