Скачать через торрент музыку Американский пирог American Pie - 1999, FLAC бесплатно без регистрации torrent

Статистика раздачи
Размер:  331 MB   |    Зарегистрирован:  7 лет 1 месяц   |    .torrent скачан:  52 раза   |   
Раздают:  1  
   
загрузка...
 
Автор Сообщение

Galfimbul

avatar Galfimbul


Американский пирог / American Pie

Жанр: Soundtrack
Год выпуска диска: 1999
Страна-производитель диска: USA

Аудио кодек: FLAC (*.flac)
Тип рипа: tracks
Битрейт аудио: lossless
Продолжительность: 46:22
Источник: waffles.fm

Треклист:

01. New Girl - Third Eye Blind
02. You Wanted More - Tonic
03. Mutt - Blink 182
04. Glory - Sugar Ray
05. Super Down - Super Transatlantic
06. Find Your Way Back Home - Dishwalla
07. Good Morning Baby - Dan Wilson/Bic Runga
08. Stranger By The Day - Shades Apart
09. Summertime - Bachelor Number One
10. Vintage Queen - Goldfinger
11. Sway - Bic Runga
12. Wishen - The Loose Nuts
13. Man With The Hex - The Atomic Fireball
 
Exact Audio Copy V0.99 prebeta 3 from 28. July 2007

EAC extraction logfile from 3. July 2008, 22:24

Various / American Pie

Used drive : HL-DT-STDVD+RW GCA-4040N Adapter: 1 ID: 0

Read mode : SecureUtilize accurate stream : YesDefeat audio cache : YesMake use of C2 pointers : No

Read offset correction : 48Overread into Lead-In and Lead-Out : NoFill up missing offset samples with silence : YesDelete leading and trailing silent blocks : NoNull samples used in CRC calculations : YesUsed interface : Native Win32 interface for Win NT & 2000Gap handling : Appended to previous track

Used output format : User Defined EncoderSelected bitrate : 192 kBit/sQuality : HighAdd ID3 tag : NoCommand line compressor : C:\Program Files\Exact Audio Copy\Flac\flac.exeAdditional command line options : -V -8 -T "artist=%a" -T "title=%t" -T "album=%g" -T "date=%y" -T "tracknumber=%n" -T "genre=%m" %s

TOC of the extracted CD

Track | Start | Length | Start sector | End sector --------------------------------------------------------- 1 | 0:00.00 | 2:14.05 | 0 | 10054 2 | 2:14.05 | 3:52.57 | 10055 | 27511 3 | 6:06.62 | 3:23.58 | 27512 | 42794 4 | 9:30.45 | 3:29.60 | 42795 | 58529 5 | 13:00.30 | 4:06.70 | 58530 | 77049 6 | 17:07.25 | 4:03.47 | 77050 | 95321 7 | 21:10.72 | 3:34.20 | 95322 | 111391 8 | 24:45.17 | 4:01.40 | 111392 | 129506 9 | 28:46.57 | 3:46.23 | 129507 | 146479 10 | 32:33.05 | 3:03.60 | 146480 | 160264 11 | 35:36.65 | 4:22.62 | 160265 | 179976 12 | 39:59.52 | 3:03.48 | 179977 | 193749 13 | 43:03.25 | 3:01.45 | 193750 | 207369

Track 1

Filename C:\UTorrent\American Pie - 1999\01 - Third Eye Blind - New Girl.wav

Pre-gap length 0:00:02.00

Peak level 99.9 % Track quality 100.0 % Test CRC DB6A8A68 Copy CRC DB6A8A68 Accurately ripped (confidence 12) [84629600] Copy OK

Track 2

Filename C:\UTorrent\American Pie - 1999\02 - Tonic - You Wanted More.wav

Peak level 99.5 % Track quality 99.9 % Test CRC 5CF2A7D7 Copy CRC 5CF2A7D7 Accurately ripped (confidence 11) [A86A16DD] Copy OK

Track 3

Filename C:\UTorrent\American Pie - 1999\03 - Blink 182 - Mutt.wav

Pre-gap length 0:00:00.33

Peak level 89.3 % Track quality 100.0 % Test CRC 8C62DD80 Copy CRC 8C62DD80 Accurately ripped (confidence 12) [C6FB1438] Copy OK

Track 4

Filename C:\UTorrent\American Pie - 1999\04 - Sugar Ray - Glory.wav

Pre-gap length 0:00:00.30

Peak level 88.1 % Track quality 100.0 % Test CRC FF9F88F8 Copy CRC FF9F88F8 Accurately ripped (confidence 12) [735B147B] Copy OK

Track 5

Filename C:\UTorrent\American Pie - 1999\05 - Super Transatlantic - Super Down.wav

Peak level 99.7 % Track quality 100.0 % Test CRC AD899288 Copy CRC AD899288 Accurately ripped (confidence 12) [66B3973A] Copy OK

Track 6

Filename C:\UTorrent\American Pie - 1999\06 - Dishwalla - Find Your Way Back Home.wav

Peak level 100.0 % Track quality 100.0 % Test CRC B7FB2F6B Copy CRC B7FB2F6B Accurately ripped (confidence 12) [B9251426] Copy OK

Track 7

Filename C:\UTorrent\American Pie - 1999\07 - Dan Wilson Of Semisonic & Bic Runga - Good Morning Baby.wav

Peak level 91.1 % Track quality 100.0 % Test CRC 4BD8E5E8 Copy CRC 4BD8E5E8 Accurately ripped (confidence 12) [0D466569] Copy OK

Track 8

Filename C:\UTorrent\American Pie - 1999\08 - Shades Apart - Stranger By The Day.wav

Pre-gap length 0:00:00.09

Peak level 99.8 % Track quality 100.0 % Test CRC 41639F57 Copy CRC 41639F57 Accurately ripped (confidence 12) [F91C072D] Copy OK

Track 9

Filename C:\UTorrent\American Pie - 1999\09 - Bachelor Number One - Summertime.wav

Peak level 100.0 % Track quality 100.0 % Test CRC 38AEE48D Copy CRC 38AEE48D Accurately ripped (confidence 12) [3503F834] Copy OK

Track 10

Filename C:\UTorrent\American Pie - 1999\10 - Goldfinger - Vintage Queen.wav

Pre-gap length 0:00:00.73

Peak level 99.9 % Track quality 100.0 % Test CRC AFDF7B00 Copy CRC AFDF7B00 Accurately ripped (confidence 12) [6DF6900B] Copy OK

Track 11

Filename C:\UTorrent\American Pie - 1999\11 - Bic Runga - Sway.wav

Peak level 98.3 % Track quality 100.0 % Test CRC B3541502 Copy CRC B3541502 Accurately ripped (confidence 12) [4B849C5B] Copy OK

Track 12

Filename C:\UTorrent\American Pie - 1999\12 - The Loose Nuts - Wishen.wav

Pre-gap length 0:00:00.86

Peak level 90.3 % Track quality 99.9 % Test CRC 608A9B1E Copy CRC 608A9B1E Accurately ripped (confidence 12) [A109862A] Copy OK

Track 13

Filename C:\UTorrent\American Pie - 1999\13 - The Atomic Fireballs - Man With The Hex.wav

Peak level 73.3 % Track quality 100.0 % Test CRC 70DBFC95 Copy CRC 70DBFC95 Accurately ripped (confidence 10) [13C3DEB4] Copy OK

All tracks accurately ripped

No errors occurred

End of status report
 
REM GENRE SoundtrackREM DATE 1999REM DISCID B70ACC0DREM COMMENT "ExactAudioCopy v0.99pb3"PERFORMER "Various"TITLE "American Pie"FILE "01 - Third Eye Blind - New Girl.wav" WAVE TRACK 01 AUDIO TITLE "New Girl" PERFORMER "Third Eye Blind" INDEX 01 00:00:00FILE "02 - Tonic - You Wanted More.wav" WAVE TRACK 02 AUDIO TITLE "You Wanted More" PERFORMER "Tonic" INDEX 01 00:00:00 TRACK 03 AUDIO TITLE "Mutt" PERFORMER "Blink 182" INDEX 00 03:52:32FILE "03 - Blink 182 - Mutt.wav" WAVE INDEX 01 00:00:00 TRACK 04 AUDIO TITLE "Glory" PERFORMER "Sugar Ray" INDEX 00 03:23:35FILE "04 - Sugar Ray - Glory.wav" WAVE INDEX 01 00:00:00FILE "05 - Super Transatlantic - Super Down.wav" WAVE TRACK 05 AUDIO TITLE "Super Down" PERFORMER "Super Transatlantic" INDEX 01 00:00:00FILE "06 - Dishwalla - Find Your Way Back Home.wav" WAVE TRACK 06 AUDIO TITLE "Find Your Way Back Home" PERFORMER "Dishwalla" INDEX 01 00:00:00FILE "07 - Dan Wilson Of Semisonic & Bic Runga - Good Morning Baby.wav" WAVE TRACK 07 AUDIO TITLE "Good Morning Baby" PERFORMER "Dan Wilson Of Semisonic & Bic Runga" INDEX 01 00:00:00 TRACK 08 AUDIO TITLE "Stranger By The Day" PERFORMER "Shades Apart" INDEX 00 03:34:13FILE "08 - Shades Apart - Stranger By The Day.wav" WAVE INDEX 01 00:00:00FILE "09 - Bachelor Number One - Summertime.wav" WAVE TRACK 09 AUDIO TITLE "Summertime" PERFORMER "Bachelor Number One" INDEX 01 00:00:00 TRACK 10 AUDIO TITLE "Vintage Queen" PERFORMER "Goldfinger" INDEX 00 03:45:43FILE "10 - Goldfinger - Vintage Queen.wav" WAVE INDEX 01 00:00:00FILE "11 - Bic Runga - Sway.wav" WAVE TRACK 11 AUDIO TITLE "Sway" PERFORMER "Bic Runga" INDEX 01 00:00:00 TRACK 12 AUDIO TITLE "Wishen" PERFORMER "The Loose Nuts" INDEX 00 04:21:72FILE "12 - The Loose Nuts - Wishen.wav" WAVE INDEX 01 00:00:00FILE "13 - The Atomic Fireballs - Man With The Hex.wav" WAVE TRACK 13 AUDIO TITLE "Man With The Hex" PERFORMER "The Atomic Fireballs" INDEX 01 00:00:00


Трекер:  [ 07-Июл-2011 23:14 ]

  

Скачать .torrent

Размер .torrent файла 14 KB


Размер: 331 MB
Хэш (hash) релиза: 089cb3f8567112e8aa43ad558ec69496c844374d

Еще никто не оставлял запись к записи скачать торрент Американский пирог American Pie - 1999, FLAC . Будь первым!

!Обратная связь