Скачать через торрент музыку Zbigniew Preisner & Teresa Salgueiro - Silence, Night And Dreams - 2007, APE бесплатно без регистрации torrent

Статистика раздачи
Размер:  285 MB   |    Зарегистрирован:  7 лет 1 месяц   |    .torrent скачан:  57 раз   |   
Раздают:  1  
   
загрузка...
 
Автор Сообщение

Galfimbul

avatar Galfimbul


Zbigniew Preisner & Teresa Salgueiro - Silence, Night And Dreams

Жанр: Orchestral / Vocal
Год выпуска диска: 2007
Аудио кодек: APE
Тип рипа: image+.cue
Битрейт аудио: lossless
Трэклист:
1. Perchance
2. Silence, Night & Dreams
3. To Speak
4. To Dream
5. To Find
6. To Know
7. To Die
8. Be Faithful, Go
9. To Love
 
Exact Audio Copy V0.99 prebeta 3 from 28. July 2007

EAC extraction logfile from 20. February 2009, 12:22

Zbigniew Preisner / Silence, Night & Dreams

Used drive : HL-DT-STDVD-RAM GSA-H20L Adapter: 0 ID: 0

Read mode : SecureUtilize accurate stream : YesDefeat audio cache : YesMake use of C2 pointers : No

Read offset correction : 102Overread into Lead-In and Lead-Out : NoFill up missing offset samples with silence : YesDelete leading and trailing silent blocks : NoNull samples used in CRC calculations : YesUsed interface : Installed external ASPI interface

Used output format : Internal WAV RoutinesSample format : 44.100 Hz; 16 Bit; Stereo

TOC of the extracted CD

Track | Start | Length | Start sector | End sector --------------------------------------------------------- 1 | 0:00.00 | 1:10.73 | 0 | 5322 2 | 1:10.73 | 6:59.51 | 5323 | 36798 3 | 8:10.49 | 9:31.00 | 36799 | 79623 4 | 17:41.49 | 1:24.50 | 79624 | 85973 5 | 19:06.24 | 12:13.66 | 85974 | 141014 6 | 31:20.15 | 4:38.49 | 141015 | 161913 7 | 35:58.64 | 7:03.58 | 161914 | 193696 8 | 43:02.47 | 9:06.33 | 193697 | 234679 9 | 52:09.05 | 4:34.73 | 234680 | 255302 10 | 59:16.03 | 6:36.62 | 266703 | 296464

Range status and errors

Selected range

Filename C:\Zbigniew Preisner - Silence, Night & Dreams.wav

Peak level 99.5 % Range quality 100.0 % Copy CRC 11BB2A7B Copy OK

No errors occurred

AccurateRip summary

Track 1 accurately ripped (confidence 7) [A216B027]Track 2 accurately ripped (confidence 7) [E8DDABC3]Track 3 accurately ripped (confidence 7) [5BC87ECB]Track 4 accurately ripped (confidence 7) [0F0CDB2F]Track 5 accurately ripped (confidence 7) [B8A34EEC]Track 6 accurately ripped (confidence 7) [34BD2F05]Track 7 accurately ripped (confidence 7) [00E83ADD]Track 8 accurately ripped (confidence 7) [0D981AAA]Track 9 accurately ripped (confidence 7) [27162FA1]

All tracks accurately ripped

End of status report
Будоражащая музыка одного из лучших композиторов современности.

Трекер:  [ 07-Июл-2011 23:14 ]

  

Скачать .torrent

Размер .torrent файла 12 KB


Размер: 285 MB
Хэш (hash) релиза: a925ea4a22ccb394e764b2bdaa866ac5c0dc5cd5

Еще никто не оставлял запись к записи скачать торрент Zbigniew Preisner & Teresa Salgueiro - Silence, Night And Dreams - 2007, APE . Будь первым!

!Обратная связь