Скачать через торрент музыку Николай Парфенюк - Movie and Dance - 1994, APE бесплатно без регистрации torrent

Статистика раздачи
Размер:  366 MB   |    Зарегистрирован:  7 лет 1 месяц   |    .torrent скачан:  56 раз   |   
Раздают:  1  
   
загрузка...
 
Автор Сообщение

Galfimbul

avatar Galfimbul


Николай Парфенюк - Movie and Dance

Жанр: Soundtrack
Год выпуска диска: 1994
Производитель диска: Россия - ACD 027 a-ram digital records (Mastering & printing by SONY DADC Austria AG)
Аудио кодек: APE
Тип рипа: image+.cue
Битрейт аудио: lossless
Продолжительность: 71:55

Записано на студии Московского театра "Ленком".
Звукорежисеры: В.Черепанов, Н.Парфенюк, В.Андреев.

Трэклист:
01. Вода - Огонь 5:36
02. Долина духов 3:00
03. Диалог в джунглях 2:30
04. Ветер в пути 2:34
05. Балканы 4:13
06. Полинезия 4:30
07. Сон о розе (Маме) 3:32
08. Пьяница 1:14
09. Лотос 6:38
10. Стрелочник (Вальс 'Пила') 4:15
11. Тема 0:51
12. Лис 5:32
13. Русский танец 3:38
14. Фонарщик 3:15
15. Борьба с удавом 2:57
16. Иллюстрация 2:54
17. Меланхолия 1:28
18. Оно 3:02
19. Мусорщик 4:13
20. Сфинкс 2:36
21. Апофеоз 3:00
"Кино и танец" - сольный проект Николая Парфенюка, в который вошла музыка для кино, театра и танца. Написанная в разное время, что обуславливает разнохарактерность звучащих на диске произведений, она представляет творчество Н.Парфенюка как автора музыки для игрового и неигрового кино, театра, развлекательных и танцевальных программ.
В основу этого проекта легла музыка к кинофильму "Маленький принц" Сахалинской студии "Авантес" и музыка, написанная для программ модерн-балета "Эйдос".
Exact Audio Copy V0.99 prebeta 4 from 23. January 2008

Отчёт EAC об извлечении, выполненном 12. марта 2009, 2:12

Николай Парфенюк / Movie and Dance

Дисковод: SONY DVD RW DRU-190A Adapter: 0 ID: 0

Режим чтения : Достоверность
Использование точного потока : Да
Отключение кэша аудио : Да
Использование указателей C2 : Нет

Коррекция смещения при чтении : 6
Способность читать области Lead-in и Lead-out : Нет
Заполнение пропущенных сэмплов тишиной : Да
Удаление блоков с тишиной в начале и конце : Нет
При вычислениях CRC использовались нулевые сэмплы : Да
Интерфейс : Установленный внешний ASPI-интерфейс

Выходной формат : Внутренние WAV-операции
Формат сэмплов : 44.100 Гц; 16 бит; стерео

TOC извлечённого CD

Трек | Старт | Длительность | Начальный сектор | Конечный сектор
---------------------------------------------------------------------
1 | 0:00.00 | 5:36.17 | 0 | 25216
2 | 5:36.17 | 3:02.73 | 25217 | 38939
3 | 8:39.15 | 2:28.37 | 38940 | 50076
4 | 11:07.52 | 2:36.58 | 50077 | 61834
5 | 13:44.35 | 4:16.07 | 61835 | 81041
6 | 18:00.42 | 4:33.60 | 81042 | 101576
7 | 22:34.27 | 3:35.00 | 101577 | 117701
8 | 26:09.27 | 1:18.50 | 117702 | 123601
9 | 27:28.02 | 6:44.33 | 123602 | 153934
10 | 34:12.35 | 4:18.42 | 153935 | 173326
11 | 38:31.02 | 0:53.38 | 173327 | 177339
12 | 39:24.40 | 5:41.52 | 177340 | 202966
13 | 45:06.17 | 3:44.43 | 202967 | 219809
14 | 48:50.60 | 3:17.50 | 219810 | 234634
15 | 52:08.35 | 3:00.27 | 234635 | 248161
16 | 55:08.62 | 2:58.00 | 248162 | 261511
17 | 58:06.62 | 1:31.28 | 261512 | 268364
18 | 59:38.15 | 3:08.20 | 268365 | 282484
19 | 62:46.35 | 4:16.72 | 282485 | 301756
20 | 67:03.32 | 2:40.60 | 301757 | 313816
21 | 69:44.17 | 3:01.73 | 313817 | 327464

Характеристики диапазона извлечения и сообщения об ошибках

Выбранный диапазон

Имя файла F:\МУЗЫКА ДЛЯ ИНТЕРНЕТА\Николай Парфенюк - Movie and Dance.wav

Пиковый уровень 87.1 %
Качество диапазона 100.0 %
CRC копии 3F002F9F
Копирование... OK

Ошибок не произошло

AccurateRip: сводка

Трек 1 нет в базе данных
Трек 2 нет в базе данных
Трек 3 нет в базе данных
Трек 4 нет в базе данных
Трек 5 нет в базе данных
Трек 6 нет в базе данных
Трек 7 нет в базе данных
Трек 8 нет в базе данных
Трек 9 нет в базе данных
Трек 10 нет в базе данных
Трек 11 нет в базе данных
Трек 12 нет в базе данных
Трек 13 нет в базе данных
Трек 14 нет в базе данных
Трек 15 нет в базе данных
Трек 16 нет в базе данных
Трек 17 нет в базе данных
Трек 18 нет в базе данных
Трек 19 нет в базе данных
Трек 20 нет в базе данных
Трек 21 нет в базе данных

Ни одного трека нет в базе AccurateRip

Конец отчёта


Трекер:  [ 07-Июл-2011 23:13 ]

  

Скачать .torrent

Размер .torrent файла 15 KB


Размер: 366 MB
Хэш (hash) релиза: 72aa2b797e2cc1dade3e05b10c7b59a903e861ba

Еще никто не оставлял запись к записи скачать торрент Николай Парфенюк - Movie and Dance - 1994, APE . Будь первым!

!Обратная связь