Скачать через торрент музыку Любимые песни из индийских кинофильмов - 2005, APE бесплатно без регистрации torrent

Статистика раздачи
Размер:  473 MB   |    Зарегистрирован:  7 лет 4 месяца   |    .torrent скачан:  64 раза   |   
Раздают:  1  
   
загрузка...
 
Автор Сообщение

Galfimbul

avatar Galfimbul


Любимые песни из индийских кинофильмов

Жанр: Soundtrack/Indian/Rock/Pop
Год выпуска диска: 2005
Производитель диска: Россия (ООО "Медиа-Лайн")
Аудио кодек: APE
Тип рипа: image+.cue
Битрейт аудио: lossless
Продолжительность: 1:16:13

Трэклист:
1. Pascal Of Bollywood - Mozart India
2. Tera Hi Deewana Dil
3. Nazia Hassan - Aoo Na
4. Pascal Of Bollywood - Chali Chali
5. Udit Narayan Alka Yagnik - Kya Baatoon Dilruba
6. Kumar Sanu - Jaane Kahan
7. Shikoum
8. Udit Narayan Mahalaxmi Juer - Odhani Odhali
9. Sonu Nigam Alka Yagnik - Dil Ne Yeh Kaha Hain Dil Se
10. Shreya Ghosal and Kunal Ganjawala - Jal Raha Hai Badan
11. Zoheb Hassan - Ooie-Ooie
12. Pascal Of Bollywood - Eveing In Paris
13. Shreya Ghosal Shaan - Ek Diwani Ladki
14. Katra Katra
15. Sili Hawa Choo Gayi
16. Nazia Hassan - Khushi
Exact Audio Copy V0.99 prebeta 3 from 28. July 2007

Отчёт EAC об извлечении, выполненном 17. сентября 2009, 14:20

Unknown Artist / Unknown Title

Дисковод: PIONEER DVD-RW DVR-110D Adapter: 0 ID: 0

Режим чтения : Достоверность
Использование точного потока : Да
Отключение кэша аудио : Да
Использование указателей C2 : Нет

Коррекция смещения при чтении : 48
Способность читать области Lead-in и Lead-out : Нет
Заполнение пропущенных сэмплов тишиной : Да
Удаление блоков с тишиной в начале и конце : Нет
При вычислениях CRC использовались нулевые сэмплы : Да
Интерфейс : Установленный внешний ASPI-интерфейс

Выходной формат : Внутренние WAV-операции
Формат сэмплов : 44.100 Гц; 16 бит; стерео

TOC извлечённого CD

Трек | Старт | Длительность | Начальный сектор | Конечный сектор
---------------------------------------------------------------------
1 | 0:00.00 | 3:02.29 | 0 | 13678
2 | 3:02.29 | 5:26.28 | 13679 | 38156
3 | 8:28.57 | 4:09.07 | 38157 | 56838
4 | 12:37.64 | 3:36.02 | 56839 | 73040
5 | 16:13.66 | 6:53.05 | 73041 | 104020
6 | 23:06.71 | 4:54.38 | 104021 | 126108
7 | 28:01.34 | 5:28.27 | 126109 | 150735
8 | 33:29.61 | 5:26.06 | 150736 | 175191
9 | 38:55.67 | 5:44.26 | 175192 | 201017
10 | 44:40.18 | 5:58.57 | 201018 | 227924
11 | 50:39.00 | 4:21.56 | 227925 | 247555
12 | 55:00.56 | 3:43.24 | 247556 | 264304
13 | 58:44.05 | 3:50.06 | 264305 | 281560
14 | 62:34.11 | 4:18.39 | 281561 | 300949
15 | 66:52.50 | 4:55.02 | 300950 | 323076
16 | 71:47.52 | 4:24.72 | 323077 | 342948

Характеристики диапазона извлечения и сообщения об ошибках

Выбранный диапазон

Имя файла D:\_AUDIO_\My_[torrents]\Любимые песни из индийских кинофильмов\Любимые песни из индийских кинофильмов.wav

Пиковый уровень 100.0 %
Качество диапазона 100.0 %
CRC копии D5ABD4F5
Копирование... OK

Ошибок не произошло

AccurateRip: сводка

Трек 1 нет в базе данных
Трек 2 нет в базе данных
Трек 3 нет в базе данных
Трек 4 нет в базе данных
Трек 5 нет в базе данных
Трек 6 нет в базе данных
Трек 7 нет в базе данных
Трек 8 нет в базе данных
Трек 9 нет в базе данных
Трек 10 нет в базе данных
Трек 11 нет в базе данных
Трек 12 нет в базе данных
Трек 13 нет в базе данных
Трек 14 нет в базе данных
Трек 15 нет в базе данных
Трек 16 нет в базе данных

Ни одного трека нет в базе AccurateRip

Конец отчёта


Трекер:  [ 07-Июл-2011 23:13 ]

  

Скачать .torrent

Размер .torrent файла 20 KB


Размер: 473 MB
Хэш (hash) релиза: 7c51151a3e6cdaeeb328ba0f795c932db9c9b14b

Еще никто не оставлял запись к записи скачать торрент Любимые песни из индийских кинофильмов - 2005, APE . Будь первым!

!Обратная связь