Скачать через торрент музыку The Best Of Tarantino - 2001, FLAC бесплатно без регистрации torrent

Статистика раздачи
Размер:  474 MB   |    Зарегистрирован:  6 лет 9 месяцев   |    .torrent скачан:  60 раз   |   
Раздают:  1  
   
загрузка...
 
Автор Сообщение

Galfimbul

avatar Galfimbul


The Best Of Tarantino

Жанр: Soundtrack, Blues
Год выпуска диска: 2001
Производитель диска: Russia Winner Music
Аудио кодек: FLAC
Тип рипа: tracks+.cue
Битрейт аудио: lossless
Продолжительность: 73:54
Трэклист:
1. Chet's Speech 0:42
2. George Baker - Little Green Bad 3:14
3. Dick Dale - Everybody Be Cool It's A Robbery 2:16
4. Chuck Berry - You Never Can Tell 2:39
5. Combustible - Vertigogo 5:32
6. Statler Bros - Flowers On The Wall 2:23
7. Stealers Wheel - Stick In The Middle With You 3:23
8. Gimmie Waughan - Dengue Woman Blues 6:13
9. John Travolta & Olivia Newton John - You Are Thee One That 4:09
10. Centurions - Zed's Dead, Baby 2:29
11. The Leftovers - Torguay 3:18
12. Tito & Tarantula - Strange Fece Of Love 5:13
13. Urge Overkill - Girl, You Be A Woman Soon 2:41
14. The Lively Ones - Surfrider 5:37
15. Leonard Cohen - I Am The Law 3:07
16. The Tornaddes - Bustin' Surfboards 2:25
17. Marry Had A Little 3:50
18. Surfaris - Wipeout 4:12
19. Runaway - Del Shannon 2:09
20. Al Green - Let's Stay Together 2:44
21. Tito & Tarantula - After Dark 2:23
22. Lets Stay together (Al Green) 3:15
 
Exact Audio Copy V0.99 prebeta 5 from 4. May 2009

Отчёт EAC об извлечении, выполненном 21. января 2010, 20:23

Various / Tarantino

Дисковод: Optiarc DVD RW AD-7203S Adapter: 1 ID: 1

Режим чтения : ДостоверностьИспользование точного потока : ДаОтключение кэша аудио : ДаИспользование указателей C2 : Нет

Коррекция смещения при чтении : 48Способность читать области Lead-in и Lead-out : НетЗаполнение пропущенных сэмплов тишиной : ДаУдаление блоков с тишиной в начале и конце : НетПри вычислениях CRC использовались нулевые сэмплы : ДаИнтерфейс : Встроенный Win32-интерфейс для Win NT/2000Обработка зазоров : Добавлено к предыдущему треку

Выходной формат : Пользовательский кодировщикВыбранный битрейт : 128 kBit/sКачество : ВысокийДобавление ID3-тэга : НетУтилита сжатия : C:\Program Files\Exact Audio Copy\Flac\flac.exeДополнительные параметры : -8 -V -T "ARTIST=%a" -T "TITLE=%t" -T "ALBUM=%g" -T "DATE=%y" -T "TRACKNUMBER=%n" -T "GENRE=%m" -T "COMMENT=EAC FLAC -8" %s

TOC извлечённого CD

Трек | Старт | Длительность | Начальный сектор | Конечный сектор --------------------------------------------------------------------- 1 | 0:00.00 | 0:42.20 | 0 | 3169 2 | 0:42.20 | 3:14.46 | 3170 | 17765 3 | 3:56.66 | 2:16.45 | 17766 | 28010 4 | 6:13.36 | 2:39.69 | 28011 | 40004 5 | 8:53.30 | 5:32.05 | 40005 | 64909 6 | 14:25.35 | 2:23.42 | 64910 | 75676 7 | 16:49.02 | 3:23.48 | 75677 | 90949 8 | 20:12.50 | 6:13.14 | 90950 | 118938 9 | 26:25.64 | 4:09.48 | 118939 | 137661 10 | 30:35.37 | 2:29.21 | 137662 | 148857 11 | 33:04.58 | 3:18.24 | 148858 | 163731 12 | 36:23.07 | 5:13.37 | 163732 | 187243 13 | 41:36.44 | 2:41.42 | 187244 | 199360 14 | 44:18.11 | 5:37.01 | 199361 | 224636 15 | 49:55.12 | 3:07.47 | 224637 | 238708 16 | 53:02.59 | 2:25.16 | 238709 | 249599 17 | 55:28.00 | 3:50.60 | 249600 | 266909 18 | 59:18.60 | 4:12.03 | 266910 | 285812 19 | 63:30.63 | 2:09.11 | 285813 | 295498 20 | 65:39.74 | 2:44.66 | 295499 | 307864 21 | 68:24.65 | 2:23.69 | 307865 | 318658 22 | 70:48.59 | 3:14.29 | 318659 | 333237

Трек 1

Имя файла C:\EAC-Rip\Various-Tarantino\01. Chet's Speech.wav

Длина предзазора 0:00:02.00

Пиковый уровень 96.6 % Качество трека 100.0 % CRC теста 1A8AF567 CRC копии 1A8AF567 Копирование... OK

Трек 2

Имя файла C:\EAC-Rip\Various-Tarantino\02. George Baker - Little Green Bad.wav

Пиковый уровень 96.6 % Качество трека 99.9 % CRC теста 6330822E CRC копии 6330822E Копирование... OK

Трек 3

Имя файла C:\EAC-Rip\Various-Tarantino\03. Dick Dale - Everybody Be Cool It's A Robbery.wav

Пиковый уровень 96.6 % Качество трека 100.0 % CRC теста 8856D440 CRC копии 8856D440 Копирование... OK

Трек 4

Имя файла C:\EAC-Rip\Various-Tarantino\04. Chuck Berry - You Never Can Tell.wav

Пиковый уровень 96.6 % Качество трека 100.0 % CRC теста 55C4F727 CRC копии 55C4F727 Копирование... OK

Трек 5

Имя файла C:\EAC-Rip\Various-Tarantino\05. Combustible - Vertigogo.wav

Пиковый уровень 96.6 % Качество трека 99.9 % CRC теста F11B3638 CRC копии F11B3638 Копирование... OK

Трек 6

Имя файла C:\EAC-Rip\Various-Tarantino\06. Statler Bros - Flowers On The Wall.wav

Пиковый уровень 96.6 % Качество трека 100.0 % CRC теста 9373DDBB CRC копии 9373DDBB Копирование... OK

Трек 7

Имя файла C:\EAC-Rip\Various-Tarantino\07. Stealers Wheel - Stick In The Middle With You.wav

Пиковый уровень 96.6 % Качество трека 100.0 % CRC теста AF8E90C5 CRC копии AF8E90C5 Копирование... OK

Трек 8

Имя файла C:\EAC-Rip\Various-Tarantino\08. Gimmie Waughan - Dengue Woman Blues.wav

Пиковый уровень 96.6 % Качество трека 100.0 % CRC теста 7D9BFE92 CRC копии 7D9BFE92 Копирование... OK

Трек 9

Имя файла C:\EAC-Rip\Various-Tarantino\09. John Travolta & Olivia Newton John - You Are Thee One That.wav

Пиковый уровень 96.6 % Качество трека 100.0 % CRC теста 73D836E0 CRC копии 73D836E0 Копирование... OK

Трек 10

Имя файла C:\EAC-Rip\Various-Tarantino\10. Centurions - Zed's Dead, Baby.wav

Пиковый уровень 96.6 % Качество трека 100.0 % CRC теста A5DB0E9C CRC копии A5DB0E9C Копирование... OK

Трек 11

Имя файла C:\EAC-Rip\Various-Tarantino\11. The Leftovers - Torguay.wav

Пиковый уровень 96.6 % Качество трека 100.0 % CRC теста BA9D26F4 CRC копии BA9D26F4 Копирование... OK

Трек 12

Имя файла C:\EAC-Rip\Various-Tarantino\12. Tito & Tarantula - Strange Fece Of Love.wav

Пиковый уровень 96.6 % Качество трека 99.9 % CRC теста 85A9275A CRC копии 85A9275A Копирование... OK

Трек 13

Имя файла C:\EAC-Rip\Various-Tarantino\13. Urge Overkill - Girl, You Be A Woman Soon.wav

Пиковый уровень 96.6 % Качество трека 100.0 % CRC теста AECC1A82 CRC копии AECC1A82 Копирование... OK

Трек 14

Имя файла C:\EAC-Rip\Various-Tarantino\14. The Lively Ones - Surfrider.wav

Пиковый уровень 96.6 % Качество трека 99.9 % CRC теста A693BD6E CRC копии A693BD6E Копирование... OK

Трек 15

Имя файла C:\EAC-Rip\Various-Tarantino\15. Leonard Cohen - I Am The Law.wav

Пиковый уровень 96.6 % Качество трека 99.9 % CRC теста 712AED6F CRC копии 712AED6F Копирование... OK

Трек 16

Имя файла C:\EAC-Rip\Various-Tarantino\16. The Tornaddes - Bustin' Surfboards.wav

Пиковый уровень 96.6 % Качество трека 100.0 % CRC теста 3060DE65 CRC копии 3060DE65 Копирование... OK

Трек 17

Имя файла C:\EAC-Rip\Various-Tarantino\17. Marry Had A Little.wav

Пиковый уровень 96.6 % Качество трека 100.0 % CRC теста 2846E318 CRC копии 2846E318 Копирование... OK

Трек 18

Имя файла C:\EAC-Rip\Various-Tarantino\18. Surfaris - Wipeout.wav

Пиковый уровень 96.6 % Качество трека 99.9 % CRC теста 694EA7D0 CRC копии 694EA7D0 Копирование... OK

Трек 19

Имя файла C:\EAC-Rip\Various-Tarantino\19. Runaway - Del Shannon.wav

Пиковый уровень 96.6 % Качество трека 99.9 % CRC теста F9ABF0D0 CRC копии F9ABF0D0 Копирование... OK

Трек 20

Имя файла C:\EAC-Rip\Various-Tarantino\20. Al Green - Let's Stay Together.wav

Пиковый уровень 96.6 % Качество трека 100.0 % CRC теста 0FD6F468 CRC копии 0FD6F468 Копирование... OK

Трек 21

Имя файла C:\EAC-Rip\Various-Tarantino\21. Tito & Tarantula - After Dark.wav

Пиковый уровень 96.6 % Качество трека 100.0 % CRC теста 6008C54D CRC копии 6008C54D Копирование... OK

Трек 22

Имя файла C:\EAC-Rip\Various-Tarantino\22. Lets Stay together (Al Green).wav

Пиковый уровень 96.6 % Качество трека 100.0 % CRC теста 239EE2E9 CRC копии 239EE2E9 Копирование... OK

Ошибок не произошло

Конец отчёта


Трекер:  [ 07-Июл-2011 23:13 ]

  

Скачать .torrent

Размер .torrent файла 20 KB


Размер: 474 MB
Хэш (hash) релиза: e47e64593e94cc2ef876f6c6260775afb8e68c3e

Еще никто не оставлял запись к записи скачать торрент The Best Of Tarantino - 2001, FLAC . Будь первым!

!Обратная связь