Скачать через торрент музыку Ультиматум Борна The Bourne Ultimatum - Music by John Powell - 2007, FLAC бесплатно без регистрации torrent

Статистика раздачи
Размер:  345 MB   |    Зарегистрирован:  7 лет 4 месяца   |    .torrent скачан:  44 раза   |   
Раздают:  1  
   
загрузка...
 
Автор Сообщение

Galfimbul

avatar Galfimbul


Ультиматум Борна / The Bourne Ultimatum - Music by John Powell

Жанр: Score
Год выпуска диска: 2007
Производитель диска: Decca Label Group
Аудио кодек: FLAC
Тип рипа: image+.cue
Битрейт аудио: lossless
Продолжительность: 55:02

Трэклист:
01. Six Weeks Ago (4:31)
02. Tangiers (7:40)
03. Thinking Of Marie (3:51)
04. Assets and Targets (7:18)
05. Faces Without Names (3:31)
06. Waterloo (10:38)
07. Coming Home (3:20)
08. Man Verses Man (5:46)
09. Jason Is Reborn (4:04)
10. Moby - Extreme Ways (Bourne's Ultimatum) (4:22)

Лог файл:
 
Exact Audio Copy V0.99 prebeta 3 from 28. July 2007

EAC extraction logfile from 7. September 2007, 13:53

Various / The Bourne Ultimatum

Used drive : PLEXTOR CD-R PREMIUM Adapter: 5 ID: 1

Read mode : SecureUtilize accurate stream : YesDefeat audio cache : YesMake use of C2 pointers : No

Read offset correction : 30Overread into Lead-In and Lead-Out : YesFill up missing offset samples with silence : YesDelete leading and trailing silent blocks : NoNull samples used in CRC calculations : YesUsed interface : Installed external ASPI interface

Used output format : Internal WAV RoutinesSample format : 44.100 Hz; 16 Bit; Stereo

TOC of the extracted CD

Track | Start | Length | Start sector | End sector --------------------------------------------------------- 1 | 0:00.00 | 4:31.05 | 0 | 20329 2 | 4:31.05 | 7:40.17 | 20330 | 54846 3 | 12:11.22 | 3:51.03 | 54847 | 72174 4 | 16:02.25 | 7:18.20 | 72175 | 105044 5 | 23:20.45 | 3:31.07 | 105045 | 120876 6 | 26:51.52 | 10:38.18 | 120877 | 168744 7 | 37:29.70 | 3:19.48 | 168745 | 183717 8 | 40:49.43 | 5:45.72 | 183718 | 209664 9 | 46:35.40 | 4:04.01 | 209665 | 227965 10 | 50:39.41 | 4:22.24 | 227966 | 247639

Range status and errors

Selected range

Filename G:\~~##~~SCORES~~##~~\Various - The Bourne Ultimatum.wav

Peak level 95.4 % Range quality 100.0 % Test CRC 1936D27B Copy CRC 1936D27B Copy OK

No errors occurred

End of status report
 
Checking AccurateRip database

Track Ripping Status [Disc ID: 001587c0-770ce50a]

1 Accurately Ripped (confidence 10) [27d90b8c] 2 Accurately Ripped (confidence 10) [c058ead4] 3 Accurately Ripped (confidence 10) [0e3cc001] 4 Accurately Ripped (confidence 10) [e2d08ec5] 5 Accurately Ripped (confidence 9) [5e950878] 6 Accurately Ripped (confidence 10) [f61aed0d] 7 Accurately Ripped (confidence 10) [b7ea3609] 8 Accurately Ripped (confidence 10) [3b7e0a2e] 9 Accurately Ripped (confidence 10) [fbea91f1] 10 Accurately Ripped (confidence 11) [22a06afc]

_______________________

All Tracks Accurately Ripped.


Трекер:  [ 07-Июл-2011 23:40 ]

  

Скачать .torrent

Размер .torrent файла 14 KB


Размер: 345 MB
Хэш (hash) релиза: 20211f868e886fc40467a8db47b2308640be421e

Еще никто не оставлял запись к записи скачать торрент Ультиматум Борна The Bourne Ultimatum - Music by John Powell - 2007, FLAC . Будь первым!

!Обратная связь