Скачать через торрент музыку Такси Taxi - 2001 бесплатно без регистрации torrent

Статистика раздачи
Размер:  387 MB   |    Зарегистрирован:  7 лет 1 месяц   |    .torrent скачан:  34 раза   |   
Раздают:  1  
   
загрузка...
 
Автор Сообщение

Galfimbul

avatar Galfimbul


Такси / Taxi

Жанр: Soundtrack / Hip-Hop
Год выпуска диска: 2001
Год выпуска фильма: 1998
Производитель диска: Франция

Аудио кодек: FLAC
Тип рипа: tracks+.cue
Битрейт аудио: lossless
Продолжительность: 1:06:46

Источник: Собственный рип

Трэклист:
01. Chien De Paille - Maudits Soient Les Yeux Fermes
02. Musique Du Film - Scooter
03. Assia - Dini
04. Fonky Family - L'amour Du Risque
05. Musique Du Film - La Charge
06. Deni Hines - Give Me Your Love
07. 3Иme Oeil - La Vie De Reve
08. Musique Du Film - 1Ere Attaque
09. Freeman/Karim Le Roi - Le Dernier Coup
10. Karl - Ne Rien Faire
11. Musique Du Film - 2Eme Attaque
12. Iam - Marseille La Nuit
13. Mafia Underground - Taxi
14. Musique Du Film - Derniere Banque
15. Carrй Rouge - Vie Infecte
16. K.Reen/Def Bond - Tu Me Plais
17. Musique Du Film - Theme De Lily Iii
18. Akhenaton - Lyrics Files
19. Deni Hines - What Makes You A Man

Доп. информация: (P)&(C) 2001 ARP Selection
 
Exact Audio Copy V0.99 prebeta 5 from 4. May 2009

Отчёт EAC об извлечении, выполненном 13. октября 2010, 07:08

Various / Taxi

Дисковод: _NEC DVD_RW ND-4571A Adapter: 0 ID: 0

Режим чтения : ДостоверностьИспользование точного потока : ДаОтключение кэша аудио : ДаИспользование указателей C2 : Нет

Коррекция смещения при чтении : 48Способность читать области Lead-in и Lead-out : НетЗаполнение пропущенных сэмплов тишиной : ДаУдаление блоков с тишиной в начале и конце : НетПри вычислениях CRC использовались нулевые сэмплы : ДаИнтерфейс : Установленный внешний ASPI-интерфейсОбработка зазоров : Добавлено к предыдущему треку

Выходной формат : Внутренние WAV-операцииФормат сэмплов : 44.100 Гц; 16 бит; стерео

TOC извлечённого CD

Трек | Старт | Длительность | Начальный сектор | Конечный сектор --------------------------------------------------------------------- 1 | 0:00.32 | 4:13.73 | 32 | 19079 2 | 4:14.30 | 1:16.72 | 19080 | 24851 3 | 5:31.27 | 5:06.35 | 24852 | 47836 4 | 10:37.62 | 6:05.20 | 47837 | 75231 5 | 16:43.07 | 0:48.40 | 75232 | 78871 6 | 17:31.47 | 3:58.35 | 78872 | 96756 7 | 21:30.07 | 4:20.43 | 96757 | 116299 8 | 25:50.50 | 1:33.52 | 116300 | 123326 9 | 27:24.27 | 5:06.60 | 123327 | 146336 10 | 32:31.12 | 4:19.15 | 146337 | 165776 11 | 36:50.27 | 1:05.50 | 165777 | 170701 12 | 37:56.02 | 4:49.58 | 170702 | 192434 13 | 42:45.60 | 5:01.70 | 192435 | 215079 14 | 47:47.55 | 1:21.52 | 215080 | 221206 15 | 49:09.32 | 5:37.73 | 221207 | 246554 16 | 54:47.30 | 3:44.70 | 246555 | 263424 17 | 58:32.25 | 0:23.45 | 263425 | 265194 18 | 58:55.70 | 4:03.12 | 265195 | 283431 19 | 62:59.07 | 3:46.63 | 283432 | 300444

Трек 1

Имя файла D:\ФТФТФТП\Music\Taxi\01. Chien de Paille – Maudits soient les yeux fermes.wav

Длина предзазора 0:00:02.32

Пиковый уровень 99.9 % Качество трека 100.0 % CRC теста 49E5AADA CRC копии 49E5AADA Копирование... OK

Трек 2

Имя файла D:\ФТФТФТП\Music\Taxi\02. Musique du film – Scooter.wav

Длина предзазора 0:00:00.68

Пиковый уровень 77.5 % Качество трека 100.0 % CRC теста 4B4938EA CRC копии 4B4938EA Копирование... OK

Трек 3

Имя файла D:\ФТФТФТП\Music\Taxi\03. Assia – Dini.wav

Длина предзазора 0:00:01.30

Пиковый уровень 99.9 % Качество трека 100.0 % CRC теста 2532CEAA CRC копии 2532CEAA Копирование... OK

Трек 4

Имя файла D:\ФТФТФТП\Music\Taxi\04. Fonky Family – L'amour du risque.wav

Длина предзазора 0:00:01.65

Пиковый уровень 99.9 % Качество трека 99.9 % CRC теста 9533ED68 CRC копии 9533ED68 Копирование... OK

Трек 5

Имя файла D:\ФТФТФТП\Music\Taxi\05. Musique du film – La charge.wav

Длина предзазора 0:00:00.67

Пиковый уровень 79.7 % Качество трека 100.0 % CRC теста 60368E9E CRC копии 60368E9E Копирование... OK

Трек 6

Имя файла D:\ФТФТФТП\Music\Taxi\06. Deni Hines – Give Me Your Love.wav

Длина предзазора 0:00:00.67

Пиковый уровень 99.9 % Качество трека 100.0 % CRC теста 1A8DFF98 CRC копии 1A8DFF98 Копирование... OK

Трек 7

Имя файла D:\ФТФТФТП\Music\Taxi\07. 3иme Oeil – La vie de reve.wav

Длина предзазора 0:00:01.52

Пиковый уровень 99.9 % Качество трека 100.0 % CRC теста 2834A74F CRC копии 2834A74F Копирование... OK

Трек 8

Имя файла D:\ФТФТФТП\Music\Taxi\08. Musique du film – 1ere attaque.wav

Длина предзазора 0:00:02.15

Пиковый уровень 99.9 % Качество трека 100.0 % CRC теста B37D9A94 CRC копии B37D9A94 Копирование... OK

Трек 9

Имя файла D:\ФТФТФТП\Music\Taxi\09. Freeman,Karim le Roi – Le dernier coup.wav

Длина предзазора 0:00:01.35

Пиковый уровень 99.9 % Качество трека 100.0 % CRC теста C1461425 CRC копии C1461425 Копирование... OK

Трек 10

Имя файла D:\ФТФТФТП\Music\Taxi\10. Karl – Ne rien faire.wav

Пиковый уровень 99.9 % Качество трека 100.0 % CRC теста F08CB5CC CRC копии F08CB5CC Копирование... OK

Трек 11

Имя файла D:\ФТФТФТП\Music\Taxi\11. Musique du film – 2eme attaque.wav

Длина предзазора 0:00:02.02

Пиковый уровень 99.9 % Качество трека 100.0 % CRC теста 3C931421 CRC копии 3C931421 Копирование... OK

Трек 12

Имя файла D:\ФТФТФТП\Music\Taxi\12. IAM – Marseille la nuit.wav

Длина предзазора 0:00:01.07

Пиковый уровень 99.9 % Качество трека 100.0 % CRC теста B8B08341 CRC копии B8B08341 Копирование... OK

Трек 13

Имя файла D:\ФТФТФТП\Music\Taxi\13. Mafia Underground – Taxi.wav

Длина предзазора 0:00:01.43

Пиковый уровень 99.9 % Качество трека 100.0 % CRC теста EC04BB41 CRC копии EC04BB41 Копирование... OK

Трек 14

Имя файла D:\ФТФТФТП\Music\Taxi\14. Musique du film – Derniere banque.wav

Длина предзазора 0:00:02.18

Пиковый уровень 99.9 % Качество трека 99.8 % CRC теста E88217A0 CRC копии E88217A0 Копирование... OK

Трек 15

Имя файла D:\ФТФТФТП\Music\Taxi\15. Carrй Rouge – Vie infecte.wav

Длина предзазора 0:00:01.47

Пиковый уровень 99.9 % Качество трека 100.0 % CRC теста 113E7670 CRC копии 113E7670 Копирование... OK

Трек 16

Имя файла D:\ФТФТФТП\Music\Taxi\16. K.reen,Def Bond – Tu me plais.wav

Длина предзазора 0:00:01.63

Пиковый уровень 99.9 % Качество трека 100.0 % CRC теста E40EEB3D CRC копии E40EEB3D Копирование... OK

Трек 17

Имя файла D:\ФТФТФТП\Music\Taxi\17. Musique du film – Theme de Lily III.wav

Длина предзазора 0:00:00.63

Пиковый уровень 63.3 % Качество трека 100.0 % CRC теста C33BC1F5 CRC копии C33BC1F5 Копирование... OK

Трек 18

Имя файла D:\ФТФТФТП\Music\Taxi\18. Akhenaton – Lyrics Files.wav

Длина предзазора 0:00:01.33

Пиковый уровень 97.9 % Качество трека 100.0 % CRC теста 9CA28FCA CRC копии 9CA28FCA Копирование... OK

Трек 19

Имя файла D:\ФТФТФТП\Music\Taxi\19. Deni Hines – What Makes You A Man.wav

Пиковый уровень 97.9 % Качество трека 100.0 % CRC теста 78FB40F3 CRC копии 78FB40F3 Копирование... OK

Ошибок не произошло

Конец отчёта
 
REM GENRE SoundtrackREM DATE 2001REM DISCID 180FA513REM COMMENT "ExactAudioCopy v0.99pb5"PERFORMER "Various"TITLE "Taxi"FILE "01. Chien de Paille – Maudits soient les yeux fermes.wav" WAVE TRACK 01 AUDIO TITLE "Maudits soient les yeux fermes" PERFORMER "Chien de Paille" PREGAP 00:00:32 INDEX 01 00:00:00 TRACK 02 AUDIO TITLE "Scooter" PERFORMER "Musique du film" INDEX 00 04:13:05FILE "02. Musique du film – Scooter.wav" WAVE INDEX 01 00:00:00 TRACK 03 AUDIO TITLE "Dini" PERFORMER "Assia" INDEX 00 01:15:42FILE "03. Assia – Dini.wav" WAVE INDEX 01 00:00:00 TRACK 04 AUDIO TITLE "L'amour du risque" PERFORMER "Fonky Family" INDEX 00 05:04:45FILE "04. Fonky Family – L'amour du risque.wav" WAVE INDEX 01 00:00:00 TRACK 05 AUDIO TITLE "La charge" PERFORMER "Musique du film" INDEX 00 06:04:28FILE "05. Musique du film – La charge.wav" WAVE INDEX 01 00:00:00 TRACK 06 AUDIO TITLE "Give Me Your Love" PERFORMER "Deni Hines" INDEX 00 00:47:48FILE "06. Deni Hines – Give Me Your Love.wav" WAVE INDEX 01 00:00:00 TRACK 07 AUDIO TITLE "La vie de reve" PERFORMER "3иme Oeil" INDEX 00 03:56:59FILE "07. 3иme Oeil – La vie de reve.wav" WAVE INDEX 01 00:00:00 TRACK 08 AUDIO TITLE "1ere attaque" PERFORMER "Musique du film" INDEX 00 04:18:28FILE "08. Musique du film – 1ere attaque.wav" WAVE INDEX 01 00:00:00 TRACK 09 AUDIO TITLE "Le dernier coup" PERFORMER "Freeman/Karim le Roi" INDEX 00 01:32:17FILE "09. Freeman,Karim le Roi – Le dernier coup.wav" WAVE INDEX 01 00:00:00FILE "10. Karl – Ne rien faire.wav" WAVE TRACK 10 AUDIO TITLE "Ne rien faire" PERFORMER "Karl" INDEX 01 00:00:00 TRACK 11 AUDIO TITLE "2eme attaque" PERFORMER "Musique du film" INDEX 00 04:17:13FILE "11. Musique du film – 2eme attaque.wav" WAVE INDEX 01 00:00:00 TRACK 12 AUDIO TITLE "Marseille la nuit" PERFORMER "IAM" INDEX 00 01:04:43FILE "12. IAM – Marseille la nuit.wav" WAVE INDEX 01 00:00:00 TRACK 13 AUDIO TITLE "Taxi" PERFORMER "Mafia Underground" INDEX 00 04:48:15FILE "13. Mafia Underground – Taxi.wav" WAVE INDEX 01 00:00:00 TRACK 14 AUDIO TITLE "Derniere banque" PERFORMER "Musique du film" INDEX 00 04:59:52FILE "14. Musique du film – Derniere banque.wav" WAVE INDEX 01 00:00:00 TRACK 15 AUDIO TITLE "Vie infecte" PERFORMER "Carrй Rouge" INDEX 00 01:20:05FILE "15. Carrй Rouge – Vie infecte.wav" WAVE INDEX 01 00:00:00 TRACK 16 AUDIO TITLE "Tu me plais" PERFORMER "K.reen/Def Bond" INDEX 00 05:36:10FILE "16. K.reen,Def Bond – Tu me plais.wav" WAVE INDEX 01 00:00:00 TRACK 17 AUDIO TITLE "Theme de Lily III" PERFORMER "Musique du film" INDEX 00 03:44:07FILE "17. Musique du film – Theme de Lily III.wav" WAVE INDEX 01 00:00:00 TRACK 18 AUDIO TITLE "Lyrics Files" PERFORMER "Akhenaton" INDEX 00 00:22:12FILE "18. Akhenaton – Lyrics Files.wav" WAVE INDEX 01 00:00:00FILE "19. Deni Hines – What Makes You A Man.wav" WAVE TRACK 19 AUDIO TITLE "What Makes You A Man" PERFORMER "Deni Hines" INDEX 01 00:00:00


Трекер:  [ 07-Июл-2011 23:40 ]

  

Скачать .torrent

Размер .torrent файла 32 KB


Размер: 387 MB
Хэш (hash) релиза: b61f29e91748217960a1de9012a8202499060b32

Еще никто не оставлял запись к записи скачать торрент Такси Taxi - 2001 . Будь первым!

!Обратная связь