Скачать через торрент музыку David Newman - Serenity Миссия Серенити - 2005, FLAC бесплатно без регистрации torrent

Статистика раздачи
Размер:  234 MB   |    Зарегистрирован:  7 лет 4 месяца   |    .torrent скачан:  46 раз   |   
Раздают:  1  
   
загрузка...
 
Автор Сообщение

Galfimbul

avatar Galfimbul


David Newman - Serenity / Миссия Серенити

Жанр: Score
Год выпуска диска: 2005
Производитель диска: USA
Аудио кодек: FLAC
Тип рипа: tracks+.cue
Битрейт аудио: lossless
Продолжительность: 50:03.293 (132445236 samples)
Трэклист:
01. David Newman - Into the River
02. David Newman - Escape
03. David Newman - Serenity
04. David Newman - Going for a Ride
05. David Newman - Trading Station Robbery
06. David Newman - River Goes Wild
07. David Newman - River and Simon in Locker
08. David Newman - Population Dead
09. David Newman - Haven Destroyed
10. David Newman - Shepherd Book's Last Words
11. David Newman - You're Not a Reaver
12. David Newman - Mal Decides
13. David Newman - Truth / Mal's Speech
14. David Newman - Space Battle
15. David Newman - Crash Landing
16. David Newman - Run to Black
17. David Newman - Generator Room
18. David Newman - Mal & Op Fight
19. David Newman - Jayne & Zoe / Final Battle
20. David Newman - Funeral / Rebuilding Serenity
21. David Newman - Prep for Flight22. David Newman - Love
23. David Newman - End Credits
EAC extraction logfile from 17. April 2007, 20:14 for CD
David Newman / Serenity

Used drive : HL-DT-STDVDRRW GSA-H21L Adapter: 2 ID: 0
Read mode : Secure with NO C2, accurate stream, disable cache
Read offset correction : 102
Overread into Lead-In and Lead-Out : No

Used output format : C:\Program Files\Exact Audio Copy\flac.exe (User Defined Encoder)
128 kBit/s
Additional command line options : -V -5 -T "artist=%a" -T "title=%t" -T "album=%g" -T "date=%y" -T "tracknumber=%n" -T "genre=%m" %s

Other options :
Fill up missing offset samples with silence : Yes
Delete leading and trailing silent blocks : No
Installed external ASPI interface

Track 1
Filename C:\Documents and Settings\Tim.YOUR-4DACD0EA75\My Documents\Oink Uploads\David Newman-Serenity-2005\01 - David Newman - Into the River.wav

Pre-gap length 0:00:02.00

Peak level 87.3 %
Track quality 100.0 %
Test CRC E81C962A
Copy CRC E81C962A
Copy OK

Track 2
Filename C:\Documents and Settings\Tim.YOUR-4DACD0EA75\My Documents\Oink Uploads\David Newman-Serenity-2005\02 - David Newman - Escape.wav

Peak level 88.6 %
Track quality 100.0 %
Test CRC 7AC0358F
Copy CRC 7AC0358F
Copy OK

Track 3
Filename C:\Documents and Settings\Tim.YOUR-4DACD0EA75\My Documents\Oink Uploads\David Newman-Serenity-2005\03 - David Newman - Serenity.wav

Pre-gap length 0:00:01.29

Peak level 89.6 %
Track quality 99.7 %
Test CRC 5FD8EDF0
Copy CRC 5FD8EDF0
Copy OK

Track 4
Filename C:\Documents and Settings\Tim.YOUR-4DACD0EA75\My Documents\Oink Uploads\David Newman-Serenity-2005\04 - David Newman - Going for a Ride.wav

Peak level 90.2 %
Track quality 100.0 %
Test CRC 810CEC04
Copy CRC 810CEC04
Copy OK

Track 5
Filename C:\Documents and Settings\Tim.YOUR-4DACD0EA75\My Documents\Oink Uploads\David Newman-Serenity-2005\05 - David Newman - Trading Station Robbery.wav

Pre-gap length 0:00:01.57

Peak level 89.6 %
Track quality 100.0 %
Test CRC 6DF35F9E
Copy CRC 6DF35F9E
Copy OK

Track 6
Filename C:\Documents and Settings\Tim.YOUR-4DACD0EA75\My Documents\Oink Uploads\David Newman-Serenity-2005\06 - David Newman - River Goes Wild.wav

Pre-gap length 0:00:01.04

Peak level 89.5 %
Track quality 100.0 %
Test CRC D06DE761
Copy CRC D06DE761
Copy OK

Track 7
Filename C:\Documents and Settings\Tim.YOUR-4DACD0EA75\My Documents\Oink Uploads\David Newman-Serenity-2005\07 - David Newman - River and Simon in Locker.wav

Pre-gap length 0:00:01.61

Peak level 89.2 %
Track quality 100.0 %
Test CRC 0E95793C
Copy CRC 0E95793C
Copy OK

Track 8
Filename C:\Documents and Settings\Tim.YOUR-4DACD0EA75\My Documents\Oink Uploads\David Newman-Serenity-2005\08 - David Newman - Population Dead.wav

Pre-gap length 0:00:01.16

Peak level 86.4 %
Track quality 100.0 %
Test CRC EF9E52B6
Copy CRC EF9E52B6
Copy OK

Track 9
Filename C:\Documents and Settings\Tim.YOUR-4DACD0EA75\My Documents\Oink Uploads\David Newman-Serenity-2005\09 - David Newman - Haven Destroyed.wav

Pre-gap length 0:00:01.58

Peak level 56.2 %
Track quality 99.8 %
Test CRC 44D89266
Copy CRC 44D89266
Copy OK

Track 10
Filename C:\Documents and Settings\Tim.YOUR-4DACD0EA75\My Documents\Oink Uploads\David Newman-Serenity-2005\10 - David Newman - Shepherd Book's Last Words.wav

Pre-gap length 0:00:01.33

Peak level 35.1 %
Track quality 100.0 %
Test CRC B70CEBCA
Copy CRC B70CEBCA
Copy OK

Track 11
Filename C:\Documents and Settings\Tim.YOUR-4DACD0EA75\My Documents\Oink Uploads\David Newman-Serenity-2005\11 - David Newman - You're Not a Reaver.wav

Pre-gap length 0:00:01.60

Peak level 89.3 %
Track quality 100.0 %
Test CRC EBFB29F7
Copy CRC EBFB29F7
Copy OK

Track 12
Filename C:\Documents and Settings\Tim.YOUR-4DACD0EA75\My Documents\Oink Uploads\David Newman-Serenity-2005\12 - David Newman - Mal Decides.wav

Pre-gap length 0:00:01.60

Peak level 89.5 %
Track quality 100.0 %
Test CRC 1085A879
Copy CRC 1085A879
Copy OK

Track 13
Filename C:\Documents and Settings\Tim.YOUR-4DACD0EA75\My Documents\Oink Uploads\David Newman-Serenity-2005\13 - David Newman - Truth , Mal's Speech.wav

Pre-gap length 0:00:01.58

Peak level 44.7 %
Track quality 100.0 %
Test CRC 98ACA97B
Copy CRC 98ACA97B
Copy OK

Track 14
Filename C:\Documents and Settings\Tim.YOUR-4DACD0EA75\My Documents\Oink Uploads\David Newman-Serenity-2005\14 - David Newman - Space Battle.wav

Pre-gap length 0:00:01.58

Peak level 91.2 %
Track quality 100.0 %
Test CRC 756964E9
Copy CRC 756964E9
Copy OK

Track 15
Filename C:\Documents and Settings\Tim.YOUR-4DACD0EA75\My Documents\Oink Uploads\David Newman-Serenity-2005\15 - David Newman - Crash Landing.wav

Peak level 93.1 %
Track quality 99.9 %
Test CRC 1F889319
Copy CRC 1F889319
Copy OK

Track 16
Filename C:\Documents and Settings\Tim.YOUR-4DACD0EA75\My Documents\Oink Uploads\David Newman-Serenity-2005\16 - David Newman - Run to Black.wav

Pre-gap length 0:00:02.53

Peak level 89.6 %
Track quality 100.0 %
Test CRC 59410989
Copy CRC 59410989
Copy OK

Track 17
Filename C:\Documents and Settings\Tim.YOUR-4DACD0EA75\My Documents\Oink Uploads\David Newman-Serenity-2005\17 - David Newman - Generator Room.wav

Pre-gap length 0:00:01.58

Peak level 90.0 %
Track quality 100.0 %
Test CRC C7428F38
Copy CRC C7428F38
Copy OK

Track 18
Filename C:\Documents and Settings\Tim.YOUR-4DACD0EA75\My Documents\Oink Uploads\David Newman-Serenity-2005\18 - David Newman - Mal & Op Fight.wav

Peak level 81.3 %
Track quality 100.0 %
Test CRC D4419B2B
Copy CRC D4419B2B
Copy OK

Track 19
Filename C:\Documents and Settings\Tim.YOUR-4DACD0EA75\My Documents\Oink Uploads\David Newman-Serenity-2005\19 - David Newman - Jayne & Zoe , Final Battle.wav

Pre-gap length 0:00:01.57

Peak level 92.0 %
Track quality 100.0 %
Test CRC F93342FB
Copy CRC F93342FB
Copy OK

Track 20
Filename C:\Documents and Settings\Tim.YOUR-4DACD0EA75\My Documents\Oink Uploads\David Newman-Serenity-2005\20 - David Newman - Funeral , Rebuilding Serenity.wav

Pre-gap length 0:00:02.58

Peak level 53.8 %
Track quality 100.0 %
Test CRC AD4F96EA
Copy CRC AD4F96EA
Copy OK

Track 21
Filename C:\Documents and Settings\Tim.YOUR-4DACD0EA75\My Documents\Oink Uploads\David Newman-Serenity-2005\21 - David Newman - Prep for Flight.wav

Pre-gap length 0:00:01.45

Peak level 47.4 %
Track quality 100.0 %
Test CRC 1E634CB9
Copy CRC 1E634CB9
Copy OK

Track 22
Filename C:\Documents and Settings\Tim.YOUR-4DACD0EA75\My Documents\Oink Uploads\David Newman-Serenity-2005\22 - David Newman - Love.wav

Pre-gap length 0:00:01.60

Peak level 94.3 %
Track quality 99.8 %
Test CRC 9DD5C50D
Copy CRC 9DD5C50D
Copy OK

Track 23
Filename C:\Documents and Settings\Tim.YOUR-4DACD0EA75\My Documents\Oink Uploads\David Newman-Serenity-2005\23 - David Newman - End Credits.wav

Peak level 89.5 %
Track quality 100.0 %
Test CRC CC8B4D7C
Copy CRC CC8B4D7C
Copy OK

No errors occured

End of status report
---------------------------------------------------------------------
David Newman - Serenity
---------------------------------------------------------------------

Artist...............: David Newman
Album................: Serenity
Genre................: Soundtrack
Source...............: CD
Year.................: 2005
Ripper...............: EAC (Secure mode) / FLAC & HL-DT-STDVDRRW GSA-H21L
Codec................: Free Lossless Audio Codec (FLAC)
Version..............: reference libFLAC 1.1.3 20061120
Quality..............: Lossless, (avg. compression: 68 %)
Channels.............: Stereo / 44100 HZ / 16 Bit
Tags.................: VorbisComment
Information..........:

Ripped by............: An OiNKer on 17/04/2007
Posted by............: WindMinstrel on 14/11/2007
News Server..........:
News Group(s)........:

Included.............: NFO, M3U, LOG, CUE

---------------------------------------------------------------------
Tracklisting
---------------------------------------------------------------------

1. (00:03:11) - (36.39%) David Newman - Into the River
2. (00:01:33) - (46.26%) David Newman - Escape
3. (00:00:51) - (48.16%) David Newman - Serenity
4. (00:02:25) - (51.49%) David Newman - Going for a Ride
5. (00:03:22) - (39.91%) David Newman - Trading Station Robbery
6. (00:01:28) - (53.99%) David Newman - River Goes Wild
7. (00:01:01) - (27.29%) David Newman - River and Simon in Locker
8. (00:03:57) - (33.27%) David Newman - Population Dead
9. (00:00:56) - (41.89%) David Newman - Haven Destroyed
10. (00:01:00) - (39.64%) David Newman - Shepherd Book's Last Words
11. (00:00:57) - (42.27%) David Newman - You're Not a Reaver
12. (00:03:09) - (45.17%) David Newman - Mal Decides
13. (00:03:27) - (37.00%) David Newman - Truth / Mal's Speech
14. (00:03:21) - (61.73%) David Newman - Space Battle
15. (00:02:01) - (62.17%) David Newman - Crash Landing
16. (00:02:59) - (50.31%) David Newman - Run to Black
17. (00:03:06) - (53.35%) David Newman - Generator Room
18. (00:02:11) - (48.69%) David Newman - Mal & Op Fight
19. (00:02:49) - (47.93%) David Newman - Jayne & Zoe / Final Battle
20. (00:02:01) - (47.60%) David Newman - Funeral / Rebuilding Serenity
21. (00:01:33) - (44.47%) David Newman - Prep for Flight
22. (00:01:06) - (45.69%) David Newman - Love
23. (00:01:38) - (56.77%) David Newman - End Credits

Playing Time.........: 01:22:38
Total Size...........: 233.40 MB

NFO generated on.....: 14/11/2007 11:47:24


Трекер:  [ 07-Июл-2011 23:39 ]

  

Скачать .torrent

Размер .torrent файла 20 KB


Размер: 234 MB
Хэш (hash) релиза: 47c4e945bf42d7496c3bbaa3e8ae1c6b7677701d

Еще никто не оставлял запись к записи скачать торрент David Newman - Serenity Миссия Серенити - 2005, FLAC . Будь первым!

!Обратная связь