Скачать через торрент музыку Плохие Парни Bad Boys - 1995, FLAC бесплатно без регистрации torrent

Статистика раздачи
Размер:  389 MB   |    Зарегистрирован:  7 лет 4 месяца   |    .torrent скачан:  48 раз   |   
Раздают:  1  
   
загрузка...
 
Автор Сообщение

Galfimbul

avatar Galfimbul


Плохие Парни / Bad Boys

Жанр: Soundtrack
Год выпуска диска: 1995
Страна-производитель диска: RU
Издатель (лейбл): Sony

Аудио кодек: FLAC (*.flac)
Тип рипа: tracks+.cue
Битрейт аудио: lossless
Продолжительность: 01:04:01

Источник: собственный рип
Наличие сканов в содержимом раздачи: нет

Треклист:
01. Diana King – Shy Guy (3:41)
02. Warren G – So Many Ways (Bad Boys Version) (3:15)
03. 69 Boyz feat. K-Nock – Five O, Five O (Here They Come) (3:21)
04. Juster – Boom Boom Boom (3:52)
05. 2Pac feat. Dramacydal – Me Against The World (4:40)
06. Jon B. feat. Babyface – Someone To Love (4:33)
07. MN8 – I've Got Something For You (Radio Version) (3:40)
08. Keith Martin – Never Find Someone Like You (4:31)
09. Ini Kamoze – Call The Police (Marvel Bonzai Mix) (3:46)
10. Da Brat feat. The Notorious B.I.G – Da B Side (3:46)
11. Xscape – Work Me Slow (4:08)
12. Call O' Da Wild – Clouds Of Smoke (4:43)
13. KMFDM – Juke-Joint Jezebel (4:10)
14. Inner Circle feat. TEK – Bad Boys Reply (4:01)
15. Mark Mancina – Theme From Bad Boys (4:14)
16. 69 Boyz feat. K-Nock – Five O, Five O (Here They Come) - (Hideout House Radio Mix) (3:40)
 
Exact Audio Copy V0.99 prebeta 5 from 4. May 2009

EAC extraction logfile from 18. September 2010, 19:52

Various / OST - Bad Boys

Used drive : Optiarc DVD RW AD-7561S Adapter: 1 ID: 0

Read mode : SecureUtilize accurate stream : YesDefeat audio cache : YesMake use of C2 pointers : No

Read offset correction : 6Overread into Lead-In and Lead-Out : NoFill up missing offset samples with silence : YesDelete leading and trailing silent blocks : NoNull samples used in CRC calculations : YesUsed interface : Native Win32 interface for Win NT & 2000Gap handling : Appended to previous track

Used output format : User Defined EncoderSelected bitrate : 128 kBit/sQuality : HighAdd ID3 tag : NoCommand line compressor : C:\Program Files\Exact Audio Copy\Flac\flac.exeAdditional command line options : -8 -V -T "ARTIST=%a" -T "TITLE=%t" -T "ALBUM=%g" -T "DATE=%y" -T "TRACKNUMBER=%n" -T "GENRE=%m" -T "COMMENT=EAC FLAC -8" %s

TOC of the extracted CD

Track | Start | Length | Start sector | End sector --------------------------------------------------------- 1 | 0:00.00 | 3:41.60 | 0 | 16634 2 | 3:41.60 | 3:15.27 | 16635 | 31286 3 | 6:57.12 | 3:21.43 | 31287 | 46404 4 | 10:18.55 | 3:52.25 | 46405 | 63829 5 | 14:11.05 | 4:40.55 | 63830 | 84884 6 | 18:51.60 | 4:33.40 | 84885 | 105399 7 | 23:25.25 | 3:40.20 | 105400 | 121919 8 | 27:05.45 | 4:31.57 | 121920 | 142301 9 | 31:37.27 | 3:46.10 | 142302 | 159261 10 | 35:23.37 | 3:46.23 | 159262 | 176234 11 | 39:09.60 | 4:08.45 | 176235 | 194879 12 | 43:18.30 | 4:43.60 | 194880 | 216164 13 | 48:02.15 | 4:10.52 | 216165 | 234966 14 | 52:12.67 | 4:01.70 | 234967 | 253111 15 | 56:14.62 | 4:14.38 | 253112 | 272199 16 | 60:29.25 | 3:40.50 | 272200 | 288749

Track 1

Filename C:\OST - Bad Boys\01. Diana King – Shy Guy.wav

Pre-gap length 0:00:02.00

Peak level 98.8 % Track quality 99.9 % Test CRC BC23C3A7 Copy CRC BC23C3A7 Copy OK

Track 2

Filename C:\OST - Bad Boys\02. Warren G – So Many Ways (Bad Boys Version).wav

Pre-gap length 0:00:01.09

Peak level 99.7 % Track quality 100.0 % Test CRC 61CBF4F7 Copy CRC 61CBF4F7 Copy OK

Track 3

Filename C:\OST - Bad Boys\03. 69 Boyz feat. K-Nock – Five O, Five O (Here They Come).wav

Pre-gap length 0:00:01.23

Peak level 100.0 % Track quality 99.9 % Test CRC 7F30EC29 Copy CRC 7F30EC29 Copy OK

Track 4

Filename C:\OST - Bad Boys\04. Juster – Boom Boom Boom.wav

Pre-gap length 0:00:01.34

Peak level 89.2 % Track quality 100.0 % Test CRC 578E12C5 Copy CRC 578E12C5 Copy OK

Track 5

Filename C:\OST - Bad Boys\05. 2Pac feat. Dramacydal – Me Against The World.wav

Pre-gap length 0:00:01.33

Peak level 91.9 % Track quality 100.0 % Test CRC 027A8118 Copy CRC 027A8118 Copy OK

Track 6

Filename C:\OST - Bad Boys\06. Jon B. feat. Babyface – Someone To Love.wav

Pre-gap length 0:00:01.25

Peak level 78.8 % Track quality 100.0 % Test CRC 614E07CC Copy CRC 614E07CC Copy OK

Track 7

Filename C:\OST - Bad Boys\07. MN8 – I've Got Something For You (Radio Version).wav

Pre-gap length 0:00:02.09

Peak level 88.5 % Track quality 100.0 % Test CRC 222C5936 Copy CRC 222C5936 Copy OK

Track 8

Filename C:\OST - Bad Boys\08. Keith Martin – Never Find Someone Like You.wav

Pre-gap length 0:00:01.46

Peak level 84.4 % Track quality 100.0 % Test CRC 453BCBF2 Copy CRC 453BCBF2 Copy OK

Track 9

Filename C:\OST - Bad Boys\09. Ini Kamoze – Call The Police (Marvel Bonzai Mix).wav

Pre-gap length 0:00:01.42

Peak level 89.2 % Track quality 99.9 % Test CRC 030ADF65 Copy CRC 030ADF65 Copy OK

Track 10

Filename C:\OST - Bad Boys\10. Da Brat feat. The Notorious B.I.G – Da B Side.wav

Pre-gap length 0:00:01.42

Peak level 87.8 % Track quality 100.0 % Test CRC 3E44AAC5 Copy CRC 3E44AAC5 Copy OK

Track 11

Filename C:\OST - Bad Boys\11. Xscape – Work Me Slow.wav

Pre-gap length 0:00:01.72

Peak level 89.3 % Track quality 100.0 % Test CRC A329BFD7 Copy CRC A329BFD7 Copy OK

Track 12

Filename C:\OST - Bad Boys\12. Call O' Da Wild – Clouds Of Smoke.wav

Pre-gap length 0:00:02.01

Peak level 94.5 % Track quality 100.0 % Test CRC 4BB5128C Copy CRC 4BB5128C Copy OK

Track 13

Filename C:\OST - Bad Boys\13. KMFDM – Juke-Joint Jezebel.wav

Pre-gap length 0:00:02.09

Peak level 95.3 % Track quality 99.9 % Test CRC BE9B8E40 Copy CRC BE9B8E40 Copy OK

Track 14

Filename C:\OST - Bad Boys\14. Inner Circle feat. TEK – Bad Boys Reply.wav

Pre-gap length 0:00:01.32

Peak level 99.9 % Track quality 100.0 % Test CRC 6DD2B538 Copy CRC 6DD2B538 Copy OK

Track 15

Filename C:\OST - Bad Boys\15. Mark Mancina – Theme From Bad Boys.wav

Pre-gap length 0:00:01.55

Peak level 100.0 % Track quality 100.0 % Test CRC E3B0C10F Copy CRC E3B0C10F Copy OK

Track 16

Filename C:\OST - Bad Boys\16. 69 Boyz feat. K-Nock – Five O, Five O (Here They Come) - (Hideout House Radio Mix).wav

Pre-gap length 0:00:01.47

Peak level 89.2 % Track quality 100.0 % Test CRC 16003FAF Copy CRC 16003FAF Copy OK

No errors occurred

End of status report
 
REM GENRE SoundtrackREM DATE 1995REM DISCID CC0F0A10REM COMMENT "ExactAudioCopy v0.99pb5"PERFORMER "Various"TITLE "OST - Bad Boys"FILE "01. Diana King – Shy Guy.wav" WAVE TRACK 01 AUDIO TITLE "Shy Guy" PERFORMER "Diana King" INDEX 01 00:00:00 TRACK 02 AUDIO TITLE "So Many Ways (Bad Boys Version)" PERFORMER "Warren G" INDEX 00 03:40:51FILE "02. Warren G – So Many Ways (Bad Boys Version).wav" WAVE INDEX 01 00:00:00 TRACK 03 AUDIO TITLE "Five O, Five O (Here They Come)" PERFORMER "69 Boyz feat. K-Nock" INDEX 00 03:14:04FILE "03. 69 Boyz feat. K-Nock – Five O, Five O (Here They Come).wav" WAVE INDEX 01 00:00:00 TRACK 04 AUDIO TITLE "Boom Boom Boom" PERFORMER "Juster" INDEX 00 03:20:09FILE "04. Juster – Boom Boom Boom.wav" WAVE INDEX 01 00:00:00 TRACK 05 AUDIO TITLE "Me Against The World" PERFORMER "2Pac feat. Dramacydal" INDEX 00 03:50:67FILE "05. 2Pac feat. Dramacydal – Me Against The World.wav" WAVE INDEX 01 00:00:00 TRACK 06 AUDIO TITLE "Someone To Love" PERFORMER "Jon B. feat. Babyface" INDEX 00 04:39:30FILE "06. Jon B. feat. Babyface – Someone To Love.wav" WAVE INDEX 01 00:00:00 TRACK 07 AUDIO TITLE "I've Got Something For You (Radio Version)" PERFORMER "MN8" INDEX 00 04:31:31FILE "07. MN8 – I've Got Something For You (Radio Version).wav" WAVE INDEX 01 00:00:00 TRACK 08 AUDIO TITLE "Never Find Someone Like You" PERFORMER "Keith Martin" INDEX 00 03:38:49FILE "08. Keith Martin – Never Find Someone Like You.wav" WAVE INDEX 01 00:00:00 TRACK 09 AUDIO TITLE "Call The Police (Marvel Bonzai Mix)" PERFORMER "Ini Kamoze" INDEX 00 04:30:15FILE "09. Ini Kamoze – Call The Police (Marvel Bonzai Mix).wav" WAVE INDEX 01 00:00:00 TRACK 10 AUDIO TITLE "Da B Side" PERFORMER "Da Brat feat. The Notorious B.I.G" INDEX 00 03:44:43FILE "10. Da Brat feat. The Notorious B.I.G – Da B Side.wav" WAVE INDEX 01 00:00:00 TRACK 11 AUDIO TITLE "Work Me Slow" PERFORMER "Xscape" INDEX 00 03:44:26FILE "11. Xscape – Work Me Slow.wav" WAVE INDEX 01 00:00:00 TRACK 12 AUDIO TITLE "Clouds Of Smoke" PERFORMER "Call O' Da Wild" INDEX 00 04:06:44FILE "12. Call O' Da Wild – Clouds Of Smoke.wav" WAVE INDEX 01 00:00:00 TRACK 13 AUDIO TITLE "Juke-Joint Jezebel" PERFORMER "KMFDM" INDEX 00 04:41:51FILE "13. KMFDM – Juke-Joint Jezebel.wav" WAVE INDEX 01 00:00:00 TRACK 14 AUDIO TITLE "Bad Boys Reply" PERFORMER "Inner Circle feat. TEK" INDEX 00 04:09:20FILE "14. Inner Circle feat. TEK – Bad Boys Reply.wav" WAVE INDEX 01 00:00:00 TRACK 15 AUDIO TITLE "Theme From Bad Boys" PERFORMER "Mark Mancina" INDEX 00 04:00:15FILE "15. Mark Mancina – Theme From Bad Boys.wav" WAVE INDEX 01 00:00:00 TRACK 16 AUDIO TITLE "Five O, Five O (Here They Come) - (Hideout House Radio Mix)" PERFORMER "69 Boyz feat. K-Nock" INDEX 00 04:12:66FILE "16. 69 Boyz feat. K-Nock – Five O, Five O (Here They Come) - (Hideout House Radio Mix).wav" WAVE INDEX 01 00:00:00


Трекер:  [ 07-Июл-2011 23:38 ]

  

Скачать .torrent

Размер .torrent файла 17 KB


Размер: 389 MB
Хэш (hash) релиза: 2b1e70102f4645abed5d5717c57c997471e835f8

Еще никто не оставлял запись к записи скачать торрент Плохие Парни Bad Boys - 1995, FLAC . Будь первым!

!Обратная связь