Скачать через торрент музыку Город воров The Town бесплатно без регистрации torrent

Статистика раздачи
Размер:  206 MB   |    Зарегистрирован:  7 лет 4 месяца   |    .torrent скачан:  59 раз   |   
Раздают:  1  
   
загрузка...
 
Автор Сообщение

AqvaGen


Город воров / The Town

Жанр: Score
Композитор: David Buckley and Harry Gregson-Williams
Год выпуска диска / фильма: 2010
Страна-производитель диска: США
Издатель (лейбл): Silva Screen Records
Номер по каталогу: SILCD1343

Аудио кодек: FLAC (*.flac)
Тип рипа: tracks+.cue
Битрейт аудио: lossless
Продолжительность: 00:41:52

Наличие сканов в содержимом раздачи: да
Треклист:
01. Charlestown (02:18)
02. Bank Attack (03:38)
03. Doug Reflects (01:53)
04. FBI Show & Tell (01:48)
05. OxyContin (02:09)
06. Healing And Stealing (03:12)
07. Nuns With Guns (03:40)
08. The Necklace (02:19)
09. The Wreath (01:24)
10. Cathedral Of Boston (02:28)
11. Fenway (03:09)
12. Who Called 911? (03:07)
13. Making The Switch (02:39)
14. Sunny Days (02:27)
15. Leaving (02:54)
16. The Letter (02:47)
 
Exact Audio Copy V0.99 prebeta 5 from 4. May 2009

EAC extraction logfile from 15. October 2010, 15:27

Harry Gregson-Williams & David Buckley / The Town (Original Motion Picture Soundtrack)

Used drive : Optiarc DVD RW AD-7241S Adapter: 1 ID: 1

Read mode : SecureUtilize accurate stream : YesDefeat audio cache : YesMake use of C2 pointers : No

Read offset correction : 48Overread into Lead-In and Lead-Out : NoFill up missing offset samples with silence : YesDelete leading and trailing silent blocks : NoNull samples used in CRC calculations : YesUsed interface : Native Win32 interface for Win NT & 2000Gap handling : Appended to previous track

Used output format : User Defined EncoderSelected bitrate : 128 kBit/sQuality : HighAdd ID3 tag : NoCommand line compressor : C:\Program Files (x86)\Exact Audio Copy\Flac\flac.exeAdditional command line options : -8 -V -T "artist=%a" -T "title=%t" -T "album=%g" -T "date=%y" -T "tracknumber=%n" -T "genre=%m" %s

TOC of the extracted CD

Track | Start | Length | Start sector | End sector --------------------------------------------------------- 1 | 0:00.00 | 2:17.71 | 0 | 10345 2 | 2:17.71 | 3:38.40 | 10346 | 26735 3 | 5:56.36 | 1:53.51 | 26736 | 35261 4 | 7:50.12 | 1:48.53 | 35262 | 43414 5 | 9:38.65 | 2:09.32 | 43415 | 53121 6 | 11:48.22 | 3:11.40 | 53122 | 67486 7 | 14:59.62 | 3:41.34 | 67487 | 84095 8 | 18:41.21 | 2:19.36 | 84096 | 94556 9 | 21:00.57 | 1:24.06 | 94557 | 100862 10 | 22:24.63 | 2:28.22 | 100863 | 111984 11 | 24:53.10 | 3:09.26 | 111985 | 126185 12 | 28:02.36 | 3:07.50 | 126186 | 140260 13 | 31:10.11 | 2:39.00 | 140261 | 152185 14 | 33:49.11 | 2:27.37 | 152186 | 163247 15 | 36:16.48 | 2:54.68 | 163248 | 176365 16 | 39:11.41 | 2:47.31 | 176366 | 188921

Track 1

Filename C:\Users\chris\Desktop\Rips\01 - Charlestown.wav

Pre-gap length 0:00:02.00

Peak level 99.9 % Track quality 100.0 % Test CRC A12B65AD Copy CRC A12B65AD Track not present in AccurateRip database Copy OK

Track 2

Filename C:\Users\chris\Desktop\Rips\02 - Bank Attack.wav

Peak level 99.9 % Track quality 100.0 % Test CRC 6EFE7D96 Copy CRC 6EFE7D96 Track not present in AccurateRip database Copy OK

Track 3

Filename C:\Users\chris\Desktop\Rips\03 - Doug Reflects.wav

Peak level 99.9 % Track quality 100.0 % Test CRC 88B60FF8 Copy CRC 88B60FF8 Track not present in AccurateRip database Copy OK

Track 4

Filename C:\Users\chris\Desktop\Rips\04 - FBI Show & Tell.wav

Peak level 99.9 % Track quality 100.0 % Test CRC B5481C97 Copy CRC B5481C97 Track not present in AccurateRip database Copy OK

Track 5

Filename C:\Users\chris\Desktop\Rips\05 - OxyContin.wav

Peak level 99.9 % Track quality 100.0 % Test CRC BDBBDB7D Copy CRC BDBBDB7D Track not present in AccurateRip database Copy OK

Track 6

Filename C:\Users\chris\Desktop\Rips\06 - Healing And Stealing.wav

Peak level 99.9 % Track quality 100.0 % Test CRC 8475B1FB Copy CRC 8475B1FB Track not present in AccurateRip database Copy OK

Track 7

Filename C:\Users\chris\Desktop\Rips\07 - Nuns With Guns.wav

Peak level 100.0 % Track quality 100.0 % Test CRC A819864C Copy CRC A819864C Track not present in AccurateRip database Copy OK

Track 8

Filename C:\Users\chris\Desktop\Rips\08 - The Necklace.wav

Peak level 99.9 % Track quality 99.9 % Test CRC 2D4328A9 Copy CRC 2D4328A9 Track not present in AccurateRip database Copy OK

Track 9

Filename C:\Users\chris\Desktop\Rips\09 - The Wreath.wav

Peak level 98.7 % Track quality 100.0 % Test CRC 732B81E3 Copy CRC 732B81E3 Track not present in AccurateRip database Copy OK

Track 10

Filename C:\Users\chris\Desktop\Rips\10 - Cathedral Of Boston.wav

Peak level 100.0 % Track quality 100.0 % Test CRC 26A0388B Copy CRC 26A0388B Track not present in AccurateRip database Copy OK

Track 11

Filename C:\Users\chris\Desktop\Rips\11 - Fenway.wav

Peak level 99.9 % Track quality 100.0 % Test CRC 13428E29 Copy CRC 13428E29 Track not present in AccurateRip database Copy OK

Track 12

Filename C:\Users\chris\Desktop\Rips\12 - Who Called 911 .wav

Peak level 99.9 % Track quality 100.0 % Test CRC DBF4B6AF Copy CRC DBF4B6AF Track not present in AccurateRip database Copy OK

Track 13

Filename C:\Users\chris\Desktop\Rips\13 - Making The Switch.wav

Peak level 99.9 % Track quality 100.0 % Test CRC 26D9BD7B Copy CRC 26D9BD7B Track not present in AccurateRip database Copy OK

Track 14

Filename C:\Users\chris\Desktop\Rips\14 - Sunny Days.wav

Peak level 97.5 % Track quality 100.0 % Test CRC E52AA917 Copy CRC E52AA917 Track not present in AccurateRip database Copy OK

Track 15

Filename C:\Users\chris\Desktop\Rips\15 - Leaving.wav

Peak level 99.9 % Track quality 100.0 % Test CRC BDC6934B Copy CRC BDC6934B Track not present in AccurateRip database Copy OK

Track 16

Filename C:\Users\chris\Desktop\Rips\16 - The Letter.wav

Peak level 99.9 % Track quality 100.0 % Test CRC FA92D217 Copy CRC FA92D217 Track not present in AccurateRip database Copy OK

None of the tracks are present in the AccurateRip database

No errors occurred

End of status report
 
REM GENRE SoundtrackREM DATE 2010REM DISCID C809D610REM COMMENT "ExactAudioCopy v0.99pb5"PERFORMER "Harry Gregson-Williams & David Buckley"TITLE "The Town (Original Motion Picture Soundtrack)"FILE "01 - Charlestown.wav" WAVE TRACK 01 AUDIO TITLE "Charlestown" PERFORMER "Harry Gregson-Williams & David Buckley" INDEX 01 00:00:00FILE "02 - Bank Attack.wav" WAVE TRACK 02 AUDIO TITLE "Bank Attack" PERFORMER "Harry Gregson-Williams & David Buckley" INDEX 01 00:00:00FILE "03 - Doug Reflects.wav" WAVE TRACK 03 AUDIO TITLE "Doug Reflects" PERFORMER "Harry Gregson-Williams & David Buckley" INDEX 01 00:00:00FILE "04 - FBI Show & Tell.wav" WAVE TRACK 04 AUDIO TITLE "FBI Show & Tell" PERFORMER "Harry Gregson-Williams & David Buckley" INDEX 01 00:00:00FILE "05 - OxyContin.wav" WAVE TRACK 05 AUDIO TITLE "OxyContin" PERFORMER "Harry Gregson-Williams & David Buckley" INDEX 01 00:00:00FILE "06 - Healing And Stealing.wav" WAVE TRACK 06 AUDIO TITLE "Healing And Stealing" PERFORMER "Harry Gregson-Williams & David Buckley" INDEX 01 00:00:00FILE "07 - Nuns With Guns.wav" WAVE TRACK 07 AUDIO TITLE "Nuns With Guns" PERFORMER "Harry Gregson-Williams & David Buckley" INDEX 01 00:00:00FILE "08 - The Necklace.wav" WAVE TRACK 08 AUDIO TITLE "The Necklace" PERFORMER "Harry Gregson-Williams & David Buckley" INDEX 01 00:00:00FILE "09 - The Wreath.wav" WAVE TRACK 09 AUDIO TITLE "The Wreath" PERFORMER "Harry Gregson-Williams & David Buckley" INDEX 01 00:00:00FILE "10 - Cathedral Of Boston.wav" WAVE TRACK 10 AUDIO TITLE "Cathedral Of Boston" PERFORMER "Harry Gregson-Williams & David Buckley" INDEX 01 00:00:00FILE "11 - Fenway.wav" WAVE TRACK 11 AUDIO TITLE "Fenway" PERFORMER "Harry Gregson-Williams & David Buckley" INDEX 01 00:00:00FILE "12 - Who Called 911 .wav" WAVE TRACK 12 AUDIO TITLE "Who Called 911?" PERFORMER "Harry Gregson-Williams & David Buckley" INDEX 01 00:00:00FILE "13 - Making The Switch.wav" WAVE TRACK 13 AUDIO TITLE "Making The Switch" PERFORMER "Harry Gregson-Williams & David Buckley" INDEX 01 00:00:00FILE "14 - Sunny Days.wav" WAVE TRACK 14 AUDIO TITLE "Sunny Days" PERFORMER "Harry Gregson-Williams & David Buckley" INDEX 01 00:00:00FILE "15 - Leaving.wav" WAVE TRACK 15 AUDIO TITLE "Leaving" PERFORMER "Harry Gregson-Williams & David Buckley" INDEX 01 00:00:00FILE "16 - The Letter.wav" WAVE TRACK 16 AUDIO TITLE "The Letter" PERFORMER "Harry Gregson-Williams & David Buckley" INDEX 01 00:00:00


Трекер:  [ 19-Дек-2010 16:20 ]

  

Скачать .torrent

Размер .torrent файла 18 KB


Размер: 206 MB
Хэш (hash) релиза: 291852332e5b368bc15281b580f2120d78c8e4d2

Торренты, похожие на Город воров The Town скачать торрент

Форум Название Автор Размер S L Добавлен
Саундтреки к фильмам и мультфильмам (mp3) ·· (Score) Город воров / The Town (by David Buckley, Harry Gregson-Williams) - 2010, MP3 (tracks), 320 kbps AqvaGen 10280016298 MB 0 0 1292265237

21:33

13-Дек-10

bot

Топик был перенесен в форум Саундтреки к фильмам и мультфильмам (lossless)

Перенес AqvaGen

Хотите добавить комментарий к записи скачать торрент Город воров The Town

!Обратная связь