Скачать через торрент музыку The Fast and The Furious Форсаж - 2001, FLAC бесплатно без регистрации torrent

Статистика раздачи
Размер:  492 MB   |    Зарегистрирован:  7 лет 1 месяц   |    .torrent скачан:  72 раза   |   
Раздают:  1  
   
загрузка...
 
Автор Сообщение

Galfimbul

avatar Galfimbul


The Fast and The Furious / Форсаж


Жанр: Soundtrack, Hip-Hop
Год выпуска диска: 2001
Производитель диска: USA
Аудио кодек: FLAC
Тип рипа: tracks+.cue
Битрейт аудио: lossless
Продолжительность: 01:12:21
Треклист:
01. Good Life Remix (3:59)
Performed by Faith Evans
02. Pov City Anthem (4:54)
Performed by Caddillac Tah
03. When A Man Does Wrong (4:51)
Performed by Ashant
04. Race Against Time Part (5:10)
Performed by 2 Tank
05. Furious (4:18)
Performed by Ja Rule
06. Take My Time Tonight (4:29)
Performed by R. Kelly
07. Suicide (3:54)
Performed by Scarface
08. The Prayre (3:39)
Performed by Black Child
09. Tudunn Tudunn Tudunn (Make U Jump) (2:41)
Performed by Funkmaster Flex
10. Hustlin' (3:18)
Performed by Fat Joe
11. Freestyle (2:52)
Performed by Boo And Gotti
12. Rollin' (Urban Assault Vehicle) (6:19)
Performed by Limp Bizkit
13. Life Ain't A Game (3:32)
Performed by Ja Rule
14. Cali Diseaz (4:00)
Performed by Shade Sheist
15. Didn't I (4:04)
Performed by Petey Pablo
16. Put it on Me Remix (4:43)
Performed by Ja Rule
17. Justify My Love (5:37)
Performed by Vita
 
Exact Audio Copy V0.99 prebeta 4 from 23. January 2008

EAC extraction logfile from 4. May 2009, 21:03

Soundtracks / The Fast And The Furious

Used drive : LITE-ON DVDRW LH-20A1L Adapter: 1 ID: 0

Read mode : SecureUtilize accurate stream : YesDefeat audio cache : YesMake use of C2 pointers : No

Read offset correction : 6Overread into Lead-In and Lead-Out : NoFill up missing offset samples with silence : YesDelete leading and trailing silent blocks : NoNull samples used in CRC calculations : YesUsed interface : Native Win32 interface for Win NT & 2000Gap handling : Appended to previous track

Used output format : User Defined EncoderSelected bitrate : 128 kBit/sQuality : HighAdd ID3 tag : NoCommand line compressor : c:\program Files\FLAC\flac.exeAdditional command line options : -T "artist=%a" -T "title=%t" -T "album=%g" -T "date=%y" -T "tracknumber=%n" -T "genre=%m" -5 %s

TOC of the extracted CD

Track | Start | Length | Start sector | End sector --------------------------------------------------------- 1 | 0:00.00 | 3:59.30 | 0 | 17954 2 | 3:59.30 | 4:53.62 | 17955 | 39991 3 | 8:53.17 | 4:50.73 | 39992 | 61814 4 | 13:44.15 | 5:10.22 | 61815 | 85086 5 | 18:54.37 | 4:18.00 | 85087 | 104436 6 | 23:12.37 | 4:29.20 | 104437 | 124631 7 | 27:41.57 | 3:53.48 | 124632 | 142154 8 | 31:35.30 | 3:38.47 | 142155 | 158551 9 | 35:14.02 | 2:41.35 | 158552 | 170661 10 | 37:55.37 | 3:18.18 | 170662 | 185529 11 | 41:13.55 | 2:52.22 | 185530 | 198451 12 | 44:06.02 | 6:18.60 | 198452 | 226861 13 | 50:24.62 | 3:32.00 | 226862 | 242761 14 | 53:56.62 | 4:00.13 | 242762 | 260774 15 | 57:57.00 | 4:03.72 | 260775 | 279071 16 | 62:00.72 | 4:42.63 | 279072 | 300284 17 | 66:43.60 | 5:37.35 | 300285 | 325594

Track 1

Filename Z:\My Torrents\Soundtrack - The Fast and The Furious - FLAC\01 - Faith Evans , Good Life Remix.wav

Pre-gap length 0:00:02.00

Peak level 100.0 % Track quality 99.9 % Test CRC 90433A37 Copy CRC 90433A37 Accurately ripped (confidence 10) [CCAC4A59] Copy OK

Track 2

Filename Z:\My Torrents\Soundtrack - The Fast and The Furious - FLAC\02 - Caddillac Tah , Pov City Anthem.wav

Peak level 100.0 % Track quality 100.0 % Test CRC 3A7E2A15 Copy CRC 3A7E2A15 Accurately ripped (confidence 10) [F1985528] Copy OK

Track 3

Filename Z:\My Torrents\Soundtrack - The Fast and The Furious - FLAC\03 - Ashanti , When A Man Does Wrong.wav

Peak level 100.0 % Track quality 100.0 % Test CRC CBD280EC Copy CRC CBD280EC Accurately ripped (confidence 10) [E4C157F4] Copy OK

Track 4

Filename Z:\My Torrents\Soundtrack - The Fast and The Furious - FLAC\04 - 2 Tank , Race Against Time Part.wav

Peak level 99.9 % Track quality 100.0 % Test CRC 0C91200A Copy CRC 0C91200A Accurately ripped (confidence 10) [55DA99A2] Copy OK

Track 5

Filename Z:\My Torrents\Soundtrack - The Fast and The Furious - FLAC\05 - Ja Rule , Furious.wav

Peak level 99.8 % Track quality 99.9 % Test CRC E07E18E7 Copy CRC E07E18E7 Accurately ripped (confidence 10) [F04790F1] Copy OK

Track 6

Filename Z:\My Torrents\Soundtrack - The Fast and The Furious - FLAC\06 - R. Kelly , Take My Time Tonight.wav

Peak level 99.9 % Track quality 100.0 % Test CRC 56F46F5E Copy CRC 56F46F5E Accurately ripped (confidence 10) [A3609949] Copy OK

Track 7

Filename Z:\My Torrents\Soundtrack - The Fast and The Furious - FLAC\07 - Scarface , Suicide.wav

Peak level 99.8 % Track quality 100.0 % Test CRC 452C44D6 Copy CRC 452C44D6 Accurately ripped (confidence 10) [A53C8DD0] Copy OK

Track 8

Filename Z:\My Torrents\Soundtrack - The Fast and The Furious - FLAC\08 - Black Child , The Prayre.wav

Peak level 99.8 % Track quality 100.0 % Test CRC 7C40366A Copy CRC 7C40366A Accurately ripped (confidence 10) [09BE4DC2] Copy OK

Track 9

Filename Z:\My Torrents\Soundtrack - The Fast and The Furious - FLAC\09 - Funkmaster Flex , Tudunn Tudunn Tudunn (Make U Jump).wav

Peak level 100.0 % Track quality 100.0 % Test CRC FA32DBC0 Copy CRC FA32DBC0 Accurately ripped (confidence 10) [CB0F3590] Copy OK

Track 10

Filename Z:\My Torrents\Soundtrack - The Fast and The Furious - FLAC\10 - Fat Joe , Hustlin'.wav

Peak level 99.8 % Track quality 99.9 % Test CRC 42287E33 Copy CRC 42287E33 Accurately ripped (confidence 10) [E5348A00] Copy OK

Track 11

Filename Z:\My Torrents\Soundtrack - The Fast and The Furious - FLAC\11 - Boo And Gotti , Freestyle.wav

Peak level 99.8 % Track quality 100.0 % Test CRC 3B1B7DE6 Copy CRC 3B1B7DE6 Accurately ripped (confidence 9) [44519ACA] Copy OK

Track 12

Filename Z:\My Torrents\Soundtrack - The Fast and The Furious - FLAC\12 - Limp Bizkit , Rollin' (Urban Assault Vehicle).wav

Peak level 100.0 % Track quality 100.0 % Test CRC 97227168 Copy CRC 97227168 Accurately ripped (confidence 10) [7AFA0E07] Copy OK

Track 13

Filename Z:\My Torrents\Soundtrack - The Fast and The Furious - FLAC\13 - Ja Rule , Life Ain't A Game.wav

Peak level 100.0 % Track quality 100.0 % Test CRC B5CF25AA Copy CRC B5CF25AA Accurately ripped (confidence 10) [F07312DC] Copy OK

Track 14

Filename Z:\My Torrents\Soundtrack - The Fast and The Furious - FLAC\14 - Shade Sheist , Cali Diseaz.wav

Peak level 100.0 % Track quality 100.0 % Test CRC 2E407C50 Copy CRC 2E407C50 Accurately ripped (confidence 10) [B7BB8B2B] Copy OK

Track 15

Filename Z:\My Torrents\Soundtrack - The Fast and The Furious - FLAC\15 - Petey Pablo , Didn't I.wav

Peak level 100.0 % Track quality 100.0 % Test CRC 4A77965F Copy CRC 4A77965F Accurately ripped (confidence 10) [E62E4A3C] Copy OK

Track 16

Filename Z:\My Torrents\Soundtrack - The Fast and The Furious - FLAC\16 - Ja Rule , Put it on Me Remix.wav

Peak level 89.0 % Track quality 100.0 % Test CRC 04BA21C9 Copy CRC 04BA21C9 Accurately ripped (confidence 10) [E4827CA2] Copy OK

Track 17

Filename Z:\My Torrents\Soundtrack - The Fast and The Furious - FLAC\17 - Vita , Justify My Love.wav

Peak level 89.0 % Track quality 100.0 % Test CRC 108D67B8 Copy CRC 108D67B8 Accurately ripped (confidence 10) [7E298034] Copy OK

All tracks accurately ripped

No errors occurred

End of status report
 
[Verification date: 21.01.2010 2:56:12][Disc ID: 002ca04c-02302a04-f610f511]Track [ CRC ] Status 01 [ccac4a59] (12/12) Accurately ripped as in pressing(s) #1 02 [f1985528] (12/12) Accurately ripped as in pressing(s) #1 03 [e4c157f4] (12/12) Accurately ripped as in pressing(s) #1 04 [55da99a2] (12/12) Accurately ripped as in pressing(s) #1 05 [f04790f1] (12/12) Accurately ripped as in pressing(s) #1 06 [a3609949] (12/12) Accurately ripped as in pressing(s) #1 07 [a53c8dd0] (12/12) Accurately ripped as in pressing(s) #1 08 [09be4dc2] (12/12) Accurately ripped as in pressing(s) #1 09 [cb0f3590] (12/12) Accurately ripped as in pressing(s) #1 10 [e5348a00] (12/12) Accurately ripped as in pressing(s) #1 11 [44519aca] (11/11) Accurately ripped as in pressing(s) #1 12 [7afa0e07] (12/12) Accurately ripped as in pressing(s) #1 13 [f07312dc] (13/13) Accurately ripped as in pressing(s) #1 14 [b7bb8b2b] (12/12) Accurately ripped as in pressing(s) #1 15 [e62e4a3c] (12/12) Accurately ripped as in pressing(s) #1 16 [e4827ca2] (12/12) Accurately ripped as in pressing(s) #1 17 [7e298034] (12/12) Accurately ripped as in pressing(s) #1

Track [ CRC32 ] [W/O NULL] [ LOG ] -- [F2493E2C] [2BB17460] 01 [90433A37] [33F6D047] CRC32 02 [3A7E2A15] [E969DA68] CRC32 03 [CBD280EC] [2A1E7670] CRC32 04 [0C91200A] [F30EB60E] CRC32 05 [E07E18E7] [DD648766] CRC32 06 [56F46F5E] [CE41C306] CRC32 07 [452C44D6] [08A947DB] CRC32 08 [7C40366A] [7E28819D] CRC32 09 [FA32DBC0] [5D2AAF12] CRC32 10 [42287E33] [F041C139] CRC32 11 [3B1B7DE6] [1A9F1736] CRC32 12 [97227168] [EC59F086] CRC32 13 [B5CF25AA] [5C868188] CRC32 14 [2E407C50] [33770298] CRC32 15 [4A77965F] [75348171] CRC32 16 [04BA21C9] [917F04C5] CRC32 17 [108D67B8] [1259D4A5] CRC32

Enjoy!


Трекер:  [ 07-Июл-2011 23:35 ]

  

Скачать .torrent

Размер .torrent файла 21 KB


Размер: 492 MB
Хэш (hash) релиза: c452241d42fc5ccbdbf6a2f8380165e4c7a64c67

Еще никто не оставлял запись к записи скачать торрент The Fast and The Furious Форсаж - 2001, FLAC . Будь первым!

!Обратная связь