Скачать через торрент музыку Crossroads - music by Ry Cooder - 1986, FLAC бесплатно без регистрации torrent

Статистика раздачи
Размер:  254 MB   |    Зарегистрирован:  6 лет 9 месяцев   |    .torrent скачан:  35 раз   |   
Раздают:  1  
   
загрузка...
 
Автор Сообщение

Galfimbul

avatar Galfimbul


Ry Cooder - Crossroads

Жанр: Soundtrack, Blues
Год выпуска: 1986
Формат: FLAC (image + .cue)
Битрейт аудио: lossless
Продолжительность: 37:45

Трэклист:
01. Crossroads
02. Down In Mississippi
03. Cotton Needs Pickin'
04. Viola Lee Blues
05. See You In Hell, Blind Boy
06. Nitty Gritty Mississippi
07. He Made A Woman Out Of Me
08. Feelin' Bad Blues
09. Somebody's Callin' My Name
10. Willie Brown Blues
11. Walkin' Away Blues

Доп. информация:
Warner Bros. Records Inc.
7599-25399-2
FRANCE WE 835
Made in Germany

сканы (tiff, 300 dpi) прилигаются
Exact Audio Copy V0.99 prebeta 3 from 28. July 2007

EAC extraction logfile from 10. January 2008, 19:29

Ry Cooder / Crossroads

Used drive : PLEXTOR CD-R PREMIUM Adapter: 1 ID: 0

Read mode : Secure
Utilize accurate stream : Yes
Defeat audio cache : Yes
Make use of C2 pointers : No

Read offset correction : 30
Overread into Lead-In and Lead-Out : Yes
Fill up missing offset samples with silence : Yes
Delete leading and trailing silent blocks : No
Null samples used in CRC calculations : No
Used interface : Installed external ASPI interface

Used output format : Internal WAV Routines
Sample format : 44.100 Hz; 16 Bit; Stereo

TOC of the extracted CD

Track | Start | Length | Start sector | End sector
---------------------------------------------------------
1 | 0:00.00 | 4:24.23 | 0 | 19822
2 | 4:24.23 | 4:26.00 | 19823 | 39772
3 | 8:50.23 | 2:58.12 | 39773 | 53134
4 | 11:48.35 | 3:11.23 | 53135 | 67482
5 | 14:59.58 | 2:10.30 | 67483 | 77262
6 | 17:10.13 | 2:57.20 | 77263 | 90557
7 | 20:07.33 | 4:12.30 | 90558 | 109487
8 | 24:19.63 | 4:16.62 | 109488 | 128749
9 | 28:36.50 | 1:45.50 | 128750 | 136674
10 | 30:22.25 | 3:45.65 | 136675 | 153614
11 | 34:08.15 | 3:37.08 | 153615 | 169897

Range status and errors

Selected range

Filename D:\My Documents\My Music\Images\my archive\CD\Ry Cooder - Crossroads\Ry Cooder - Crossroads.wav

Peak level 97.6 %
Range quality 100.0 %
Copy CRC D076A1CD
Copy OK

No errors occurred

AccurateRip summary

Track 1 accurately ripped (confidence 4) [E98776FD]
Track 2 accurately ripped (confidence 4) [D610ED51]
Track 3 accurately ripped (confidence 4) [2AE470D2]
Track 4 accurately ripped (confidence 4) [022DF603]
Track 5 accurately ripped (confidence 4) [AECC0574]
Track 6 accurately ripped (confidence 4) [131ECD27]
Track 7 accurately ripped (confidence 4) [9BC42F4F]
Track 8 accurately ripped (confidence 5) [0223B1F6]
Track 9 accurately ripped (confidence 4) [B65FFFE5]
Track 10 accurately ripped (confidence 4) [A3FD4465]
Track 11 accurately ripped (confidence 4) [CC55A799]

All tracks accurately ripped

End of status report


Трекер:  [ 07-Июл-2011 23:33 ]

  

Скачать .torrent

Размер .torrent файла 41 KB


Размер: 254 MB
Хэш (hash) релиза: 705b365a7056ff661bfe1f9e21996e8188987ed9

Еще никто не оставлял запись к записи скачать торрент Crossroads - music by Ry Cooder - 1986, FLAC . Будь первым!

!Обратная связь