Скачать через торрент музыку District 9 Район №9 бесплатно без регистрации torrent

Статистика раздачи
Размер:  152 MB   |    Зарегистрирован:  7 лет 7 месяцев   |    .torrent скачан:  56 раз   |   
Раздают:  1  
   
загрузка...
 
Автор Сообщение

AqvaGen


District 9 / Район №9 (Clinton Shorter)

Жанр: Score
Год выпуска диска: 2009
Аудио кодек: FLAC
Тип рипа: tracks+.cue
Битрейт аудио: lossless
Продолжительность: 00:29:49

Трэклист:

01. District 9 (6:28)
02. I Want That Arm (2:13)
03. She Calls (1:35)
04. Exosuit (3:16)
05. Harvesting Material (1:46)
06. Heading Home (1:15)
07. A Lot of Secrets (2:28)
08. Back to D9 (1:46)
09. Wikus Is Still Running (2:57)
10. Get Him Talking (2:06)
11. Prawnkus (4:00)
Exact Audio Copy V0.99 prebeta 5 from 4. May 2009

EAC extraction logfile from 14. September 2009, 15:42

Clinton Shorter / District 9

Used drive : LITE-ON DVD SHD-16P1S Adapter: 0 ID: 0

Read mode : Secure
Utilize accurate stream : Yes
Defeat audio cache : Yes
Make use of C2 pointers : No

Read offset correction : 6
Overread into Lead-In and Lead-Out : No
Fill up missing offset samples with silence : Yes
Delete leading and trailing silent blocks : No
Null samples used in CRC calculations : Yes
Used interface : Native Win32 interface for Win NT & 2000
Gap handling : Appended to previous track

Used output format : User Defined Encoder
Selected bitrate : 128 kBit/s
Quality : High
Add ID3 tag : No
Command line compressor : C:\Program Files\FLAC\flac.exe
Additional command line options : -V -8 -T "artist=%a" -T "title=%t" -T "album=%g" -T "date=%y" -T "tracknumber=%n" -T "genre=%m" %s

TOC of the extracted CD

Track | Start | Length | Start sector | End sector
---------------------------------------------------------
1 | 0:00.00 | 6:28.41 | 0 | 29140
2 | 6:28.41 | 2:13.24 | 29141 | 39139
3 | 8:41.65 | 1:35.09 | 39140 | 46273
4 | 10:16.74 | 3:15.43 | 46274 | 60941
5 | 13:32.42 | 1:46.00 | 60942 | 68891
6 | 15:18.42 | 1:14.54 | 68892 | 74495
7 | 16:33.21 | 2:27.43 | 74496 | 85563
8 | 19:00.64 | 1:45.64 | 85564 | 93502
9 | 20:46.53 | 2:57.24 | 93503 | 106801
10 | 23:44.02 | 2:05.45 | 106802 | 116221
11 | 25:49.47 | 4:00.17 | 116222 | 134238

Track 1

Filename D:\Musiques\Clinton Shorter\District 9\FLAC\01 District 9.wav

Pre-gap length 0:00:02.00

Peak level 94.4 %
Track quality 100.0 %
Test CRC 8B3D60C5
Copy CRC 8B3D60C5
Track not present in AccurateRip database
Copy OK

Track 2

Filename D:\Musiques\Clinton Shorter\District 9\FLAC\02 I Want That Arm.wav

Peak level 94.4 %
Track quality 100.0 %
Test CRC 8F34AD9E
Copy CRC 8F34AD9E
Track not present in AccurateRip database
Copy OK

Track 3

Filename D:\Musiques\Clinton Shorter\District 9\FLAC\03 She Calls.wav

Peak level 94.4 %
Track quality 100.0 %
Test CRC 1A8C5D73
Copy CRC 1A8C5D73
Track not present in AccurateRip database
Copy OK

Track 4

Filename D:\Musiques\Clinton Shorter\District 9\FLAC\04 Exosuit.wav

Peak level 94.6 %
Track quality 99.9 %
Test CRC 65E36F16
Copy CRC 65E36F16
Track not present in AccurateRip database
Copy OK

Track 5

Filename D:\Musiques\Clinton Shorter\District 9\FLAC\05 Harvesting Material.wav

Peak level 94.4 %
Track quality 100.0 %
Test CRC 4842FBD8
Copy CRC 4842FBD8
Track not present in AccurateRip database
Copy OK

Track 6

Filename D:\Musiques\Clinton Shorter\District 9\FLAC\06 Heading Home.wav

Peak level 94.6 %
Track quality 99.8 %
Test CRC D6494989
Copy CRC D6494989
Track not present in AccurateRip database
Copy OK

Track 7

Filename D:\Musiques\Clinton Shorter\District 9\FLAC\07 A Lot of Secrets.wav

Peak level 94.4 %
Track quality 100.0 %
Test CRC C179B464
Copy CRC C179B464
Track not present in AccurateRip database
Copy OK

Track 8

Filename D:\Musiques\Clinton Shorter\District 9\FLAC\08 Back to D9.wav

Peak level 94.4 %
Track quality 100.0 %
Test CRC FD4C3366
Copy CRC FD4C3366
Track not present in AccurateRip database
Copy OK

Track 9

Filename D:\Musiques\Clinton Shorter\District 9\FLAC\09 Wikus is Still Running.wav

Peak level 94.4 %
Track quality 99.9 %
Test CRC 406A4974
Copy CRC 406A4974
Track not present in AccurateRip database
Copy OK

Track 10

Filename D:\Musiques\Clinton Shorter\District 9\FLAC\10 Get Him Talking.wav

Peak level 98.1 %
Track quality 100.0 %
Test CRC DC7FB9B1
Copy CRC DC7FB9B1
Track not present in AccurateRip database
Copy OK

Track 11

Filename D:\Musiques\Clinton Shorter\District 9\FLAC\11 Prawnkus.wav

Peak level 94.4 %
Track quality 100.0 %
Test CRC CAA7B6D6
Copy CRC CAA7B6D6
Track not present in AccurateRip database
Copy OK

None of the tracks are present in the AccurateRip database

No errors occurred

End of status report
AUDIOCHECKER v2.0 beta (build 457) - by Dester - opdester@freemail.hu
~~~~~~~~~~~~~~~~~~~~~~~~~~~~~~~~~~

Started at: четверг, 17. 09. 2009. - 13:03.57
11 files found

01 -===- D:\Download\District 9\01 District 9.flac
Extracted successfully
Conclusion: this track is CDDA with probability 100%
Tempfile successfully deleted.

02 -===- D:\Download\District 9\02 I Want That Arm.flac
Extracted successfully
Conclusion: this track is CDDA with probability 100%
Tempfile successfully deleted.

03 -===- D:\Download\District 9\03 She Calls.flac
Extracted successfully
Conclusion: this track is CDDA with probability 100%
Tempfile successfully deleted.

04 -===- D:\Download\District 9\04 Exosuit.flac
Extracted successfully
Conclusion: this track is CDDA with probability 100%
Tempfile successfully deleted.

05 -===- D:\Download\District 9\05 Harvesting Material.flac
Extracted successfully
Conclusion: this track is CDDA with probability 100%
Tempfile successfully deleted.

06 -===- D:\Download\District 9\06 Heading Home.flac
Extracted successfully
Conclusion: this track is CDDA with probability 99%
Tempfile successfully deleted.

07 -===- D:\Download\District 9\07 A Lot of Secrets.flac
Extracted successfully
Conclusion: this track is CDDA with probability 100%
Tempfile successfully deleted.

08 -===- D:\Download\District 9\08 Back to D9.flac
Extracted successfully
Conclusion: this track is CDDA with probability 100%
Tempfile successfully deleted.

09 -===- D:\Download\District 9\09 Wikus is Still Running.flac
Extracted successfully
Conclusion: this track is CDDA with probability 99%
Tempfile successfully deleted.

10 -===- D:\Download\District 9\10 Get Him Talking.flac
Extracted successfully
Conclusion: this track is CDDA with probability 100%
Tempfile successfully deleted.

11 -===- D:\Download\District 9\11 Prawnkus.flac
Extracted successfully
Conclusion: this track is CDDA with probability 100%
Tempfile successfully deleted.

Finished at: четверг, 17. 09. 2009. - 13:09.15 (operation time: 0:05.17)


Трекер:  [ 19-Дек-2010 16:18 ]

  

Скачать .torrent

Размер .torrent файла 13 KB


Размер: 152 MB
Хэш (hash) релиза: b4ab3957c77007b2f59e6c80d65dacbc80603208

bot

Топик был перенесен в форум Саундтреки к фильмам и мультфильмам (lossless)

Перенес AqvaGen

Хотите добавить комментарий к записи скачать торрент District 9 Район №9

!Обратная связь