Скачать через торрент музыку Телохранитель The Bodyguard бесплатно без регистрации torrent

Статистика раздачи
Размер:  493 MB   |    Зарегистрирован:  6 лет 9 месяцев   |    .torrent скачан:  87 раз   |   
Раздают:  1  
   
загрузка...
 
Автор Сообщение

Galfimbul

avatar Galfimbul


Телохранитель / The Bodyguard

Жанр: Soundtrack, Electronic, Rock, Stage & Screen
Год выпуска диска: 1993
Производитель диска: Germany
Аудио кодек: FLAC
Тип рипа: image+.cue
Битрейт аудио: lossless
Продолжительность: 75:09
Трэклист:
1. I Will Always Love You (4:35) (Whitney Houston)
2. I Have Nothing (4:49) (Whitney Houston)
3. I'm Every Woman (4:48) (Whitney Houston)
4. Run To You (4:24) (Whitney Houston)
5. Queen Of The Night (3:09) (Whitney Houston)
6. Jesus Loves Me (5:12) (Whitney Houston)
7. Even If My Heart Would Break (4:57) (Kenny G & Aaron Neville)
8. Someday (I'm Coming Back) (4:59) (Lisa Stansfield)
9. It's Gonna Be A Lovely Day (4:51) (the S.O.U.L. S.Y.S.T.E.M.)
10. (What's So Funny 'Bout) Peace, Love And Understanding (4:05) (Curtis Stigers)
11. Waiting For You (4:56) (Kenny G) - NOT ON THE U.S. ALBUM
12. Trust In Me (4:17) (Joe Cocker)
13. Theme From The Bodyguard (2:45) (Alan Silvestri)
14. I'm Every Woman (Clivilles & Cole House Mix 1) (10:40) (Whitney Houston)
15. Queen Of The Night (CJ's Master Mix) (6:35) (Whitney Houston)
 
Exact Audio Copy V0.99 prebeta 5 from 4. May 2009

EAC extraction logfile from 13. October 2009, 2:44

Various / The Bodyguard (Original Soundtrack Album)

Used drive : TEAC DV-W516GC Adapter: 1 ID: 0

Read mode : SecureUtilize accurate stream : YesDefeat audio cache : YesMake use of C2 pointers : No

Read offset correction : 6Overread into Lead-In and Lead-Out : NoFill up missing offset samples with silence : YesDelete leading and trailing silent blocks : NoNull samples used in CRC calculations : YesUsed interface : Native Win32 interface for Win NT & 2000

Used output format : User Defined EncoderSelected bitrate : 768 kBit/sQuality : HighAdd ID3 tag : NoCommand line compressor : C:\Program Files (x86)\Exact Audio Copy\FLAC\FLAC.EXEAdditional command line options : -6 -V -T "ARTIST=%a" -T "TITLE=%t" -T "ALBUM=%g" -T "DATE=%y" -T "TRACKNUMBER=%n" -T "GENRE=%m" -T "COMMENT=%e" %s -o %d

TOC of the extracted CD

Track | Start | Length | Start sector | End sector --------------------------------------------------------- 1 | 0:00.32 | 4:35.30 | 32 | 20686 2 | 4:35.62 | 4:49.70 | 20687 | 42431 3 | 9:25.57 | 4:48.35 | 42432 | 64066 4 | 14:14.17 | 4:24.33 | 64067 | 83899 5 | 18:38.50 | 3:09.37 | 83900 | 98111 6 | 21:48.12 | 5:12.45 | 98112 | 121556 7 | 27:00.57 | 4:57.50 | 121557 | 143881 8 | 31:58.32 | 4:59.08 | 143882 | 166314 9 | 36:57.40 | 4:51.05 | 166315 | 188144 10 | 41:48.45 | 4:05.27 | 188145 | 206546 11 | 45:53.72 | 4:56.58 | 206547 | 228804 12 | 50:50.55 | 4:17.05 | 228805 | 248084 13 | 55:07.60 | 2:45.42 | 248085 | 260501 14 | 57:53.27 | 10:40.70 | 260502 | 308571 15 | 68:34.22 | 6:35.13 | 308572 | 338209

Range status and errors

Selected range

Filename E:\Music\The Bodyguard (Original Soundtrack Album)\Various - The Bodyguard (Original Soundtrack Album).wav

Peak level 94.4 % Range quality 100.0 % Test CRC 596E36A3 Copy CRC 596E36A3 Copy OK

No errors occurred

AccurateRip summary

Track 1 accurately ripped (confidence 15) [AFB64589]Track 2 accurately ripped (confidence 15) [D51E21BA]Track 3 accurately ripped (confidence 14) [485196FC]Track 4 accurately ripped (confidence 14) [782B3E49]Track 5 accurately ripped (confidence 13) [E6A3B2E2]Track 6 accurately ripped (confidence 13) [3AACC768]Track 7 accurately ripped (confidence 14) [32B319D0]Track 8 accurately ripped (confidence 13) [DF91A37E]Track 9 accurately ripped (confidence 13) [A0DBE45F]Track 10 accurately ripped (confidence 14) [4C9EEF5C]Track 11 accurately ripped (confidence 14) [64E27428]Track 12 accurately ripped (confidence 14) [BCFA5423]Track 13 accurately ripped (confidence 14) [E3CC69EF]Track 14 accurately ripped (confidence 13) [9C112633]Track 15 accurately ripped (confidence 15) [D2FB10D8]

All tracks accurately ripped

End of status report


Трекер:  [ 07-Июл-2011 23:32 ]

  

Скачать .torrent

Размер .torrent файла 20 KB


Размер: 493 MB
Хэш (hash) релиза: b112ef675c5d5c267edfbca95a4d257550a3c355

Еще никто не оставлял запись к записи скачать торрент Телохранитель The Bodyguard . Будь первым!

!Обратная связь