Скачать через торрент музыку Chicago Чикаго бесплатно без регистрации torrent

Статистика раздачи
Размер:  366 MB   |    Зарегистрирован:  6 лет 9 месяцев   |    .torrent скачан:  44 раза   |   
Раздают:  1  
   
загрузка...
 
Автор Сообщение

Galfimbul

avatar Galfimbul


Chicago / Чикаго (Русская версия)

Жанр: Soundtrack
Год выпуска диска: 2002
Производитель диска: Россия
Аудио кодек: FLAC
Тип рипа: tracks+.cue
Битрейт аудио: lossless
Продолжительность: 00:57:06
Трэклист:
01 - Увертюра, весь этот джаз
02 - Мой милый, мой дорогой
03 - Будешь доброй к маме
04 - Тюремное танго
05 - Все отдам я за любовь
06 - Мы оба пытались схватить пистолет
07 - Рокси
08 - Это мне не сделать одной
09 - Мистер Целлофан
10 - С шиком-блеском
11 - Наши дни
12 - Наши дни (рэгтайм)
13 - After midnight
14 - Roxies's Suite
 
EAC extraction logfile from 11. September 2009, 23:27 for CDЧикаго - саундтрек / Unknown CD for MusicBrainz and FreeDB

Used drive : Optiarc DVD RW AD-7593A Adapter: 1 ID: 0Read mode : Secure with NO C2, accurate stream, disable cacheRead offset correction : 48Overread into Lead-In and Lead-Out : No

Used output format : C:\Program Files\Total Commander\Soft\AIMP\Encoders\flac.exe (User Defined Encoder) 192 kBit/s Additional command line options : -8 -V -T "ARTIST=%a" -T "TITLE=%t" -T "ALBUM=%g" -T "DATE=%y" -T "TRACKNUMBER=%n" -T "GENRE=%m" -T "COMMENT=EAC FLAC -8" %s

Other options : Fill up missing offset samples with silence : Yes Delete leading and trailing silent blocks : No Native Win32 interface for Win NT & 2000

Track 1 Filename D:\Отдача\OST - Chicago(Чикаго) (2002)\01 - Увертюра, весь этот джаз.wav

Pre-gap length 0:00:02.00

Peak level 94.5 % Track quality 100.0 % Test CRC E854C028 Copy CRC E854C028 Copy OK

Track 2 Filename D:\Отдача\OST - Chicago(Чикаго) (2002)\02 - Мой милый, мой дорогой.wav

Pre-gap length 0:00:02.77

Peak level 99.4 % Track quality 99.9 % Test CRC 6ED83501 Copy CRC 6ED83501 Copy OK

Track 3 Filename D:\Отдача\OST - Chicago(Чикаго) (2002)\03 - Будешь доброй к маме.wav

Pre-gap length 0:00:02.77

Peak level 95.3 % Track quality 99.9 % Test CRC AAF8CD39 Copy CRC AAF8CD39 Copy OK

Track 4 Filename D:\Отдача\OST - Chicago(Чикаго) (2002)\04 - Тюремное танго.wav

Pre-gap length 0:00:02.77

Peak level 99.9 % Track quality 100.0 % Test CRC 32266BD1 Copy CRC 32266BD1 Copy OK

Track 5 Filename D:\Отдача\OST - Chicago(Чикаго) (2002)\05 - Все отдам я за любовь.wav

Pre-gap length 0:00:02.76

Peak level 99.0 % Track quality 100.0 % Test CRC A019BFA7 Copy CRC A019BFA7 Copy OK

Track 6 Filename D:\Отдача\OST - Chicago(Чикаго) (2002)\06 - Мы оба пытались схватить пистолет.wav

Pre-gap length 0:00:02.77

Peak level 99.0 % Track quality 100.0 % Test CRC C47A78D0 Copy CRC C47A78D0 Copy OK

Track 7 Filename D:\Отдача\OST - Chicago(Чикаго) (2002)\07 - Рокси.wav

Pre-gap length 0:00:02.77

Peak level 99.7 % Track quality 100.0 % Test CRC 9169291A Copy CRC 9169291A Copy OK

Track 8 Filename D:\Отдача\OST - Chicago(Чикаго) (2002)\08 - Это мне не сделать одной.wav

Pre-gap length 0:00:02.76

Peak level 99.6 % Track quality 100.0 % Test CRC 91B72033 Copy CRC 91B72033 Copy OK

Track 9 Filename D:\Отдача\OST - Chicago(Чикаго) (2002)\09 - Мистер Целлофан.wav

Pre-gap length 0:00:02.76

Peak level 99.4 % Track quality 100.0 % Test CRC 2F2A7A15 Copy CRC 2F2A7A15 Copy OK

Track 10 Filename D:\Отдача\OST - Chicago(Чикаго) (2002)\10 - С шиком-блеском.wav

Pre-gap length 0:00:02.77

Peak level 97.8 % Track quality 100.0 % Test CRC FD8C3F76 Copy CRC FD8C3F76 Copy OK

Track 11 Filename D:\Отдача\OST - Chicago(Чикаго) (2002)\11 - Наши дни.wav

Pre-gap length 0:00:02.77

Peak level 97.2 % Track quality 99.9 % Test CRC 526D28FE Copy CRC 526D28FE Copy OK

Track 12 Filename D:\Отдача\OST - Chicago(Чикаго) (2002)\12 - Наши дни (рэгтайм).wav

Peak level 93.8 % Track quality 99.9 % Test CRC 6FD609E5 Copy CRC 6FD609E5 Copy OK

Track 13 Filename D:\Отдача\OST - Chicago(Чикаго) (2002)\13 - After midnight.wav

Pre-gap length 0:00:02.77

Peak level 96.7 % Track quality 100.0 % Test CRC BD136E12 Copy CRC BD136E12 Copy OK

Track 14 Filename D:\Отдача\OST - Chicago(Чикаго) (2002)\14 - Roxies's Suite.wav

Pre-gap length 0:00:02.76

Peak level 81.8 % Track quality 99.9 % Test CRC D75D8977 Copy CRC D75D8977 Copy OK

No errors occured

End of status report


Трекер:  [ 07-Июл-2011 23:32 ]

  

Скачать .torrent

Размер .torrent файла 16 KB


Размер: 366 MB
Хэш (hash) релиза: ab69baa21244a484728f2cfbd9205e0140393885

Торренты, похожие на Chicago Чикаго скачать торрент

Форум Название Автор Размер S L Добавлен
Саундтреки к фильмам и мультфильмам (lossless) ·· (Soundtrack) Chicago / Чикаго - 2002, FLAC (tracks+.cue), lossless AqvaGen 450761791430 MB 0 0 1292268538

22:28

13-Дек-10

Саундтреки к фильмам и мультфильмам (lossless) ·· (Score) Чикаго в огне / Chicago Fire [Season 1-2] (Original Television Soundtrack) (Atli Orvarsson) - 2015, FLAC (tracks), lossless Galfimbul 521280399497 MB 0 0 1485345920

15:05

25-Янв-17

Саундтреки к фильмам и мультфильмам (mp3) ·· (Score/TV) Чикаго в огне / Chicago Fire [Season 1-3] (by Atli Orvarsson) - 2015 (2012-2015), MP3 (tracks) 320 kbps Galfimbul 272514796260 MB 0 0 1485279707

20:41

24-Янв-17

Саундтреки к фильмам и мультфильмам (mp3) ·· (Score) Чикаго в огне / Chicago Fire [Original TV Soundtrack. Session 1] (by Atli Orvarsson) - 2015, MP3 (tracks) 320 kbps Galfimbul 123451853118 MB 0 0 1423391111

13:25

8-Фев-15

Саундтреки к фильмам и мультфильмам (lossless) ·· (Score) Надежда Чикаго / Chicago Hope (by Mark Isham & Jeff Rona) - 1997 (1994), APE (image+.cue), lossless uzi2009 341754301326 MB 0 0 1323979364

23:02

15-Дек-11

Саундтреки к фильмам и мультфильмам (mp3) ·· (Soundtrack) Чикаго (Русская версия) / Chicago - 2002 [MP3 320 kbps] AqvaGen 149566637143 MB 0 0 1292265249

21:34

13-Дек-10

Саундтреки к фильмам и мультфильмам (mp3) ·· (Soundtrack) Чикаго / Chicago - 2002 [MP3 320 kbps] Galfimbul 168800229161 MB 0 0 1292265124

21:32

13-Дек-10

Еще никто не оставлял запись к записи скачать торрент Chicago Чикаго . Будь первым!

!Обратная связь