Скачать через торрент музыку Dominic Frontiere - Color of Night Цвет ночи - 1994, APE бесплатно без регистрации torrent

Статистика раздачи
Размер:  173 MB   |    Зарегистрирован:  6 лет 9 месяцев   |    .torrent скачан:  42 раза   |   
Раздают:  1  
   
загрузка...
 
Автор Сообщение

Galfimbul

avatar Galfimbul


Dominic Frontiere - Color of Night / Цвет ночи

Страна: США
Жанр: OST
Год выпуска: 1994
Формат: APE (image + .cue)
Битрейт аудио: lossless
Продолжительность: 0:34:14,42
Трэклист:
CD: Dominic Frontiere - Color of Night

01. Love Theme [0:04:46.12]
02. Color Blind [0:02:11.00]
03. Sessions [0:03:23.53]
04. Rain [perf. by Lauren Christy] [0:03:29.60]
05. The Color of the Night [perf. by Lauren Christy] [0:03:58.15]
06. The Color of the Night [Instrumental Version perf. by Brian McKinght] [0:02:58.00]
07. Rose's Theme [0:03:34.50]
08. Etude for Murder [0:03:34.55]
09. The Photograph [0:02:22.57]
10. Just to See You [perf. by Lowen and Navarro] [0:03:55.40]
Доп. информация: Раритет из моей коллекции. Для истиных любителей.
Exact Audio Copy V0.99 prebeta 4 from 23. January 2008

Отчёт EAC об извлечении, выполненном 26. апреля 2008, 10:54

Dominic Frontiere / Color of Night

Дисковод: Optiarc DVD RW AD-7170S Adapter: 0 ID: 1

Режим чтения : Достоверность
Использование точного потока : Да
Отключение кэша аудио : Да
Использование указателей C2 : Нет

Коррекция смещения при чтении : 48
Способность читать области Lead-in и Lead-out : Нет
Заполнение пропущенных сэмплов тишиной : Да
Удаление блоков с тишиной в начале и конце : Нет
При вычислениях CRC использовались нулевые сэмплы : Да
Интерфейс : Встроенный Win32-интерфейс для Win NT/2000

Выходной формат : Внутренние WAV-операции
Формат сэмплов : 44.100 Гц; 16 бит; стерео

TOC извлечённого CD

Трек | Старт | Длительность | Начальный сектор | Конечный сектор
---------------------------------------------------------------------
1 | 0:00.00 | 4:46.12 | 0 | 21461
2 | 4:46.12 | 2:11.00 | 21462 | 31286
3 | 6:57.12 | 3:23.53 | 31287 | 46564
4 | 10:20.65 | 3:29.60 | 46565 | 62299
5 | 13:50.50 | 3:58.15 | 62300 | 80164
6 | 17:48.65 | 2:58.00 | 80165 | 93514
7 | 20:46.65 | 3:34.50 | 93515 | 109614
8 | 24:21.40 | 3:34.55 | 109615 | 125719
9 | 27:56.20 | 2:22.57 | 125720 | 136426
10 | 30:19.02 | 3:55.40 | 136427 | 154091

Характеристики диапазона извлечения и сообщения об ошибках

Выбранный диапазон

Имя файла G:\Dominic Frontiere - Color of Night.wav

Пиковый уровень 94.6 %
CRC копии 38BA757D
Копирование завершено

Ошибок не произошло

Конец отчёта


Трекер:  [ 07-Июл-2011 23:32 ]

  

Скачать .torrent

Размер .torrent файла 14 KB


Размер: 173 MB
Хэш (hash) релиза: 91ee272761e06fc3c9e769ff92e6d48b98433ef0

Еще никто не оставлял запись к записи скачать торрент Dominic Frontiere - Color of Night Цвет ночи - 1994, APE . Будь первым!

!Обратная связь