Скачать через торрент музыку Девушка моего лучшего друга My Best Friends Girl бесплатно без регистрации torrent

Статистика раздачи
Размер:  346 MB   |    Зарегистрирован:  6 лет 9 месяцев   |    .torrent скачан:  48 раз   |   
Раздают:  1  
   
загрузка...
 
Автор Сообщение

Galfimbul

avatar Galfimbul


Девушка моего лучшего друга / My Best Friend's Girl

Жанр: Soundtrack
Год выпуска диска: 2008
Производитель диска: USA
Аудио кодек: FLAC
Тип рипа: tracks+.cue
Битрейт аудио: lossless
Продолжительность: 00:53:48

01 - Jean Knight - Do Me (02:52)
02 - Linda Ronstadt - You're No Good (03:44)
03 - The Cars - My Best Friend's Girl (03:47)
04 - Sweet - Love Is Like Oxygen (06:53)
05 - Nena - 99 Luftballoons (99 Red Balloons) (03:54)
06 - Tommy James & the Shondells - Crimson and Clover (03:28)
07 - Etta James - At Last (03:02)
08 - John Hiatt - Have a Little Faith in Me (04:03)
09 - Glacier Hiking - Save Some (03:09)
10 - Malbec - Blue (03:37)
11 - The Kooks - Always Where I Need to Be (02:42)
12 - 2 Live Crew - Pop That P Ussy (04:21)
13 - Teddy Thompson - Separate Ways (05:39)
14 - John Debney - Best Friends Again/I Love You (02:41)

Источник: what.cd
 
Exact Audio Copy V0.99 prebeta 3 from 28. July 2007

EAC extraction logfile from 10. June 2010, 8:19

Various / My Best Friend's Girl Soundtrack

Used drive : ASUS DRW-2014L1T Adapter: 3 ID: 0

Read mode : SecureUtilize accurate stream : YesDefeat audio cache : YesMake use of C2 pointers : No

Read offset correction : 6Overread into Lead-In and Lead-Out : NoFill up missing offset samples with silence : YesDelete leading and trailing silent blocks : NoNull samples used in CRC calculations : YesUsed interface : Native Win32 interface for Win NT & 2000Gap handling : Appended to previous track

Used output format : User Defined EncoderSelected bitrate : 320 kBit/sQuality : HighAdd ID3 tag : NoCommand line compressor : C:\Program Files (x86)\FLAC\flac.exeAdditional command line options : -V -8 -T "artist=%a" -T "title=%t" -T "album=%g" -T "date=%y" -T "tracknumber=%n" -T "genre=%m" %s

TOC of the extracted CD

Track | Start | Length | Start sector | End sector --------------------------------------------------------- 1 | 0:00.00 | 2:51.55 | 0 | 12879 2 | 2:51.55 | 3:43.29 | 12880 | 29633 3 | 6:35.09 | 3:46.66 | 29634 | 46649 4 | 10:22.00 | 6:52.17 | 46650 | 77566 5 | 17:14.17 | 3:54.03 | 77567 | 95119 6 | 21:08.20 | 3:28.02 | 95120 | 110721 7 | 24:36.22 | 3:02.15 | 110722 | 124386 8 | 27:38.37 | 4:03.01 | 124387 | 142612 9 | 31:41.38 | 3:08.32 | 142613 | 156744 10 | 34:49.70 | 3:36.58 | 156745 | 173002 11 | 38:26.53 | 2:42.06 | 173003 | 185158 12 | 41:08.59 | 4:20.36 | 185159 | 204694 13 | 45:29.20 | 5:38.58 | 204695 | 230102 14 | 51:08.03 | 2:40.69 | 230103 | 242171

Track 1

Filename C:\EAC\My Best Friend's Girl Soundtrack (2008) [FLAC]\01 - Jean Knight - Do Me.wav

Pre-gap length 0:00:02.00

Peak level 97.7 % Track quality 100.0 % Test CRC AA42C65B Copy CRC AA42C65B Accurately ripped (confidence 1) [0204DEAA] Copy OK

Track 2

Filename C:\EAC\My Best Friend's Girl Soundtrack (2008) [FLAC]\02 - Linda Ronstadt - You're No Good.wav

Peak level 97.7 % Track quality 100.0 % Test CRC 3C5DA498 Copy CRC 3C5DA498 Accurately ripped (confidence 1) [379F36B1] Copy OK

Track 3

Filename C:\EAC\My Best Friend's Girl Soundtrack (2008) [FLAC]\03 - The Cars - My Best Friend's Girl.wav

Pre-gap length 0:00:01.82

Peak level 97.7 % Track quality 100.0 % Test CRC BB68773D Copy CRC BB68773D Accurately ripped (confidence 1) [3C89695C] Copy OK

Track 4

Filename C:\EAC\My Best Friend's Girl Soundtrack (2008) [FLAC]\04 - Sweet - Love Is Like Oxygen.wav

Pre-gap length 0:00:01.46

Peak level 97.7 % Track quality 100.0 % Test CRC 4539596D Copy CRC 4539596D Accurately ripped (confidence 1) [6875737D] Copy OK

Track 5

Filename C:\EAC\My Best Friend's Girl Soundtrack (2008) [FLAC]\05 - Nena - 99 Luftballoons (99 Red Balloons).wav

Pre-gap length 0:00:01.56

Peak level 97.7 % Track quality 100.0 % Test CRC 5FDC9454 Copy CRC 5FDC9454 Accurately ripped (confidence 1) [7FEFCD87] Copy OK

Track 6

Filename C:\EAC\My Best Friend's Girl Soundtrack (2008) [FLAC]\06 - Tommy James & the Shondells - Crimson and Clover.wav

Pre-gap length 0:00:01.21

Peak level 98.8 % Track quality 100.0 % Test CRC F85541BC Copy CRC F85541BC Accurately ripped (confidence 1) [F19CA765] Copy OK

Track 7

Filename C:\EAC\My Best Friend's Girl Soundtrack (2008) [FLAC]\07 - Etta James - At Last.wav

Pre-gap length 0:00:01.93

Peak level 97.7 % Track quality 100.0 % Test CRC 7427F08D Copy CRC 7427F08D Accurately ripped (confidence 1) [16748B6C] Copy OK

Track 8

Filename C:\EAC\My Best Friend's Girl Soundtrack (2008) [FLAC]\08 - John Hiatt - Have a Little Faith in Me.wav

Pre-gap length 0:00:01.16

Peak level 97.7 % Track quality 100.0 % Test CRC FE2D87E2 Copy CRC FE2D87E2 Accurately ripped (confidence 1) [72D051D2] Copy OK

Track 9

Filename C:\EAC\My Best Friend's Girl Soundtrack (2008) [FLAC]\09 - Glacier Hiking - Save Some.wav

Peak level 97.7 % Track quality 100.0 % Test CRC 34FF2B0D Copy CRC 34FF2B0D Accurately ripped (confidence 1) [968AFDA1] Copy OK

Track 10

Filename C:\EAC\My Best Friend's Girl Soundtrack (2008) [FLAC]\10 - Malbec - Blue.wav

Pre-gap length 0:00:02.22

Peak level 97.7 % Track quality 100.0 % Test CRC 388F2FC7 Copy CRC 388F2FC7 Accurately ripped (confidence 1) [45C08DB2] Copy OK

Track 11

Filename C:\EAC\My Best Friend's Girl Soundtrack (2008) [FLAC]\11 - The Kooks - Always Where I Need to Be.wav

Pre-gap length 0:00:01.53

Peak level 97.7 % Track quality 100.0 % Test CRC 21CB6CCA Copy CRC 21CB6CCA Accurately ripped (confidence 1) [707E4CD9] Copy OK

Track 12

Filename C:\EAC\My Best Friend's Girl Soundtrack (2008) [FLAC]\12 - 2 Live Crew - Pop That P Ussy.wav

Pre-gap length 0:00:01.45

Peak level 97.7 % Track quality 100.0 % Test CRC B6EBF95B Copy CRC B6EBF95B Accurately ripped (confidence 1) [9D6B6194] Copy OK

Track 13

Filename C:\EAC\My Best Friend's Girl Soundtrack (2008) [FLAC]\13 - Teddy Thompson - Separate Ways.wav

Pre-gap length 0:00:02.37

Peak level 97.7 % Track quality 100.0 % Test CRC AC83865D Copy CRC AC83865D Accurately ripped (confidence 1) [A8DB77C1] Copy OK

Track 14

Filename C:\EAC\My Best Friend's Girl Soundtrack (2008) [FLAC]\14 - John Debney - Best Friends Again,I Love You.wav

Pre-gap length 0:00:02.72

Peak level 97.7 % Track quality 100.0 % Test CRC 75C9F6A7 Copy CRC 75C9F6A7 Accurately ripped (confidence 1) [DD3D713B] Copy OK

All tracks accurately ripped

No errors occurred

End of status report
 
REM GENRE SoundtrackREM DATE 2008REM DISCID AB0C9C0EREM COMMENT "ExactAudioCopy v0.99pb3"FILE "My Best Friend's Girl Soundtrack (2008) [FLAC]\01 - Jean Knight - Do Me.wav" WAVE TRACK 01 AUDIO INDEX 01 00:00:00FILE "My Best Friend's Girl Soundtrack (2008) [FLAC]\02 - Linda Ronstadt - You're No Good.wav" WAVE TRACK 02 AUDIO INDEX 01 00:00:00 TRACK 03 AUDIO INDEX 00 03:41:42FILE "My Best Friend's Girl Soundtrack (2008) [FLAC]\03 - The Cars - My Best Friend's Girl.wav" WAVE INDEX 01 00:00:00 TRACK 04 AUDIO INDEX 00 03:45:31FILE "My Best Friend's Girl Soundtrack (2008) [FLAC]\04 - Sweet - Love Is Like Oxygen.wav" WAVE INDEX 01 00:00:00 TRACK 05 AUDIO INDEX 00 06:50:50FILE "My Best Friend's Girl Soundtrack (2008) [FLAC]\05 - Nena - 99 Luftballoons (99 Red Balloons).wav" WAVE INDEX 01 00:00:00 TRACK 06 AUDIO INDEX 00 03:52:62FILE "My Best Friend's Girl Soundtrack (2008) [FLAC]\06 - Tommy James & the Shondells - Crimson and Clover.wav" WAVE INDEX 01 00:00:00 TRACK 07 AUDIO INDEX 00 03:26:07FILE "My Best Friend's Girl Soundtrack (2008) [FLAC]\07 - Etta James - At Last.wav" WAVE INDEX 01 00:00:00 TRACK 08 AUDIO INDEX 00 03:01:03FILE "My Best Friend's Girl Soundtrack (2008) [FLAC]\08 - John Hiatt - Have a Little Faith in Me.wav" WAVE INDEX 01 00:00:00FILE "My Best Friend's Girl Soundtrack (2008) [FLAC]\09 - Glacier Hiking - Save Some.wav" WAVE TRACK 09 AUDIO INDEX 01 00:00:00 TRACK 10 AUDIO INDEX 00 03:06:15FILE "My Best Friend's Girl Soundtrack (2008) [FLAC]\10 - Malbec - Blue.wav" WAVE INDEX 01 00:00:00 TRACK 11 AUDIO INDEX 00 03:35:18FILE "My Best Friend's Girl Soundtrack (2008) [FLAC]\11 - The Kooks - Always Where I Need to Be.wav" WAVE INDEX 01 00:00:00 TRACK 12 AUDIO INDEX 00 02:40:47FILE "My Best Friend's Girl Soundtrack (2008) [FLAC]\12 - 2 Live Crew - Pop That P Ussy.wav" WAVE INDEX 01 00:00:00 TRACK 13 AUDIO INDEX 00 04:18:08FILE "My Best Friend's Girl Soundtrack (2008) [FLAC]\13 - Teddy Thompson - Separate Ways.wav" WAVE INDEX 01 00:00:00 TRACK 14 AUDIO INDEX 00 05:36:04FILE "My Best Friend's Girl Soundtrack (2008) [FLAC]\14 - John Debney - Best Friends Again,I Love You.wav" WAVE INDEX 01 00:00:00
 
REM GENRE SoundtrackREM DATE 2008REM DISCID AB0C9C0EREM COMMENT "ExactAudioCopy v0.99pb3"FILE "01 - Jean Knight - Do Me.wav" WAVE TRACK 01 AUDIO INDEX 01 00:00:00FILE "02 - Linda Ronstadt - You're No Good.wav" WAVE TRACK 02 AUDIO INDEX 01 00:00:00 TRACK 03 AUDIO INDEX 00 03:41:42FILE "03 - The Cars - My Best Friend's Girl.wav" WAVE INDEX 01 00:00:00 TRACK 04 AUDIO INDEX 00 03:45:31FILE "04 - Sweet - Love Is Like Oxygen.wav" WAVE INDEX 01 00:00:00 TRACK 05 AUDIO INDEX 00 06:50:50FILE "05 - Nena - 99 Luftballoons (99 Red Balloons).wav" WAVE INDEX 01 00:00:00 TRACK 06 AUDIO INDEX 00 03:52:62FILE "06 - Tommy James & the Shondells - Crimson and Clover.wav" WAVE INDEX 01 00:00:00 TRACK 07 AUDIO INDEX 00 03:26:07FILE "07 - Etta James - At Last.wav" WAVE INDEX 01 00:00:00 TRACK 08 AUDIO INDEX 00 03:01:03FILE "08 - John Hiatt - Have a Little Faith in Me.wav" WAVE INDEX 01 00:00:00FILE "09 - Glacier Hiking - Save Some.wav" WAVE TRACK 09 AUDIO INDEX 01 00:00:00 TRACK 10 AUDIO INDEX 00 03:06:15FILE "10 - Malbec - Blue.wav" WAVE INDEX 01 00:00:00 TRACK 11 AUDIO INDEX 00 03:35:18FILE "11 - The Kooks - Always Where I Need to Be.wav" WAVE INDEX 01 00:00:00 TRACK 12 AUDIO INDEX 00 02:40:47FILE "12 - 2 Live Crew - Pop That P Ussy.wav" WAVE INDEX 01 00:00:00 TRACK 13 AUDIO INDEX 00 04:18:08FILE "13 - Teddy Thompson - Separate Ways.wav" WAVE INDEX 01 00:00:00 TRACK 14 AUDIO INDEX 00 05:36:04FILE "14 - John Debney - Best Friends Again,I Love You.wav" WAVE INDEX 01 00:00:00


Трекер:  [ 07-Июл-2011 23:32 ]

  

Скачать .torrent

Размер .torrent файла 15 KB


Размер: 346 MB
Хэш (hash) релиза: 7e89dc0f53a6a91b8085b9d4a50ed6f4e559432f

Торренты, похожие на Девушка моего лучшего друга My Best Friends Girl скачать торрент

Форум Название Автор Размер S L Добавлен
Саундтреки к фильмам и мультфильмам (mp3) ·· (Soundtrack) Девушка моего лучшего друга / My Best Friend's Girl (John Debney & VA) - 2008 [MP3 320 kbps] Asjw 129342553123 MB 0 0 1292265603

21:40

13-Дек-10

Еще никто не оставлял запись к записи скачать торрент Девушка моего лучшего друга My Best Friends Girl . Будь первым!

!Обратная связь