Скачать через торрент музыку VA - Madagascar Escape 2 Africa - 2008, FLAC бесплатно без регистрации torrent

Статистика раздачи
Размер:  321 MB   |    Зарегистрирован:  7 лет 4 месяца   |    .torrent скачан:  42 раза   |   
Раздают:  1  
   
загрузка...
 
Автор Сообщение

Galfimbul

avatar Galfimbul


VA - Madagascar Escape 2 Africa - 2008



Label: N/A
Catalog#: N/A
Format: CD
Country: N/A
Released: 2008
Genre: Soundtrack
Style: Pop, Dance
Format: FLAC
Bitrate: lossless
Duration: --:--

Tracklist:

01. Hans Zimmer - Once Upen A Time In Africa
02. Will.I.Am & Hans Zimmer - The Traveling Song
03. Hans Zimmer - Party! Party! Party!
04. Will.I.Am - I Like To Move It
05. Hans Zimmer - The Good, The Bad and The Ugly
06. Will.I.Am & Hans Zimmer - Big And Chunky
07. Hans Zimmer - Chums .flac
08. Hans Zimmer - New York, New York (Polska Version)
09. Hans Zimmer - Volcano
10. Hans Zimmer - Rescue Me
11. Boston - More Than A Feeling
12. Will.I.Am & Hans Zimmer - She Loves Me
13. Hans Zimmer - Foofie
14. Barry Manilow - Copacabana (At The Copa)
15. Hans Zimmer - Monochromatic Friends
16. Will.I.Am & Hans Zimmer - Best Friends
17. Hans Zimmer - Alex On The Spot
 
Exact Audio Copy V0.99 prebeta 4 from 23. January 2008

EAC extraction logfile from 27. November 2008, 0:10

Various Artists / Madagascar - Escape 2 Africa OST

Used drive : PLEXTOR DVDR PX-810SA Adapter: 5 ID: 0

Read mode : SecureUtilize accurate stream : YesDefeat audio cache : YesMake use of C2 pointers : No

Read offset correction : 48Overread into Lead-In and Lead-Out : NoFill up missing offset samples with silence : YesDelete leading and trailing silent blocks : NoNull samples used in CRC calculations : YesUsed interface : Installed external ASPI interfaceGap handling : Appended to previous track

Used output format : User Defined EncoderSelected bitrate : 1024 kBit/sQuality : HighAdd ID3 tag : NoCommand line compressor : C:\Program Files\FLAC\flac.exeAdditional command line options : -V -8 -T "artist=%a" -T "title=%t" -T "album=%g" -T "date=%y" -T "tracknumber=%n" -T "genre=%m" %s

TOC of the extracted CD

Track | Start | Length | Start sector | End sector --------------------------------------------------------- 1 | 0:00.00 | 3:44.10 | 0 | 16809 2 | 3:44.10 | 3:25.65 | 16810 | 32249 3 | 7:10.00 | 3:31.50 | 32250 | 48124 4 | 10:41.50 | 3:41.35 | 48125 | 64734 5 | 14:23.10 | 0:54.12 | 64735 | 68796 6 | 15:17.22 | 3:21.53 | 68797 | 83924 7 | 18:39.00 | 2:16.12 | 83925 | 94136 8 | 20:55.12 | 1:30.63 | 94137 | 100949 9 | 22:26.00 | 2:50.12 | 100950 | 113711 10 | 25:16.12 | 3:36.38 | 113712 | 129949 11 | 28:52.50 | 4:45.62 | 129950 | 151386 12 | 33:38.37 | 1:45.23 | 151387 | 159284 13 | 35:23.60 | 2:40.65 | 159285 | 171349 14 | 38:04.50 | 4:07.00 | 171350 | 189874 15 | 42:11.50 | 3:02.62 | 189875 | 203586 16 | 45:14.37 | 2:26.38 | 203587 | 214574 17 | 47:41.00 | 1:58.57 | 214575 | 223481

Track 1

Filename E:\Temp\01 - Once Upon A Time In Africa.wav

Pre-gap length 0:00:02.00

Peak level 97.6 % Track quality 99.9 % Test CRC B01C9C27 Copy CRC B01C9C27 Copy OK

Track 2

Filename E:\Temp\02 - The Traveling Song.wav

Peak level 97.6 % Track quality 99.9 % Test CRC B028948A Copy CRC B028948A Copy OK

Track 3

Filename E:\Temp\03 - Party! Party! Party!.wav

Peak level 97.6 % Track quality 100.0 % Test CRC B186757B Copy CRC B186757B Copy OK

Track 4

Filename E:\Temp\04 - I Like To Move It.wav

Peak level 97.6 % Track quality 99.9 % Test CRC A89DBA66 Copy CRC A89DBA66 Copy OK

Track 5

Filename E:\Temp\05 - The Good, The Bad And The Ugly (Polka Version).wav

Peak level 97.6 % Track quality 100.0 % Test CRC DA75ADBA Copy CRC DA75ADBA Copy OK

Track 6

Filename E:\Temp\06 - Big And Chunky.wav

Peak level 97.6 % Track quality 100.0 % Test CRC CE0C3570 Copy CRC CE0C3570 Copy OK

Track 7

Filename E:\Temp\07 - Chums.wav

Peak level 97.6 % Track quality 99.9 % Test CRC 6D257086 Copy CRC 6D257086 Copy OK

Track 8

Filename E:\Temp\08 - New York, New York (Polka Version).wav

Peak level 97.6 % Track quality 100.0 % Test CRC 50829531 Copy CRC 50829531 Copy OK

Track 9

Filename E:\Temp\09 - Volcano.wav

Peak level 97.6 % Track quality 100.0 % Test CRC 7E770ADB Copy CRC 7E770ADB Copy OK

Track 10

Filename E:\Temp\10 - Rescue Me.wav

Peak level 97.6 % Track quality 99.9 % Test CRC 7ED202B9 Copy CRC 7ED202B9 Copy OK

Track 11

Filename E:\Temp\11 - More Than A Feeling.wav

Peak level 98.0 % Track quality 100.0 % Test CRC 3FF4B5D3 Copy CRC 3FF4B5D3 Copy OK

Track 12

Filename E:\Temp\12 - She Loves Me.wav

Peak level 97.6 % Track quality 100.0 % Test CRC 1A40BCED Copy CRC 1A40BCED Copy OK

Track 13

Filename E:\Temp\13 - Foofie.wav

Peak level 87.0 % Track quality 100.0 % Test CRC 7423570A Copy CRC 7423570A Copy OK

Track 14

Filename E:\Temp\14 - Copacabana (At The Copa).wav

Peak level 87.0 % Track quality 100.0 % Test CRC 97304C93 Copy CRC 97304C93 Copy OK

Track 15

Filename E:\Temp\15 - Monochromatic Friends.wav

Peak level 97.6 % Track quality 100.0 % Test CRC 00C78B4B Copy CRC 00C78B4B Copy OK

Track 16

Filename E:\Temp\16 - Best Friends.wav

Peak level 97.6 % Track quality 100.0 % Test CRC 67314BC7 Copy CRC 67314BC7 Copy OK

Track 17

Filename E:\Temp\17 - Alex On The Spot.wav

Peak level 97.6 % Track quality 100.0 % Test CRC 27C27BB5 Copy CRC 27C27BB5 Copy OK

No errors occurred

End of status report
Замечательный мульт с чудесными песенками

Трекер:  [ 07-Июл-2011 23:32 ]

  

Скачать .torrent

Размер .torrent файла 14 KB


Размер: 321 MB
Хэш (hash) релиза: 19028c89bd051f3a5cd6d271c5b91baba7e501b1

Еще никто не оставлял запись к записи скачать торрент VA - Madagascar Escape 2 Africa - 2008, FLAC . Будь первым!

!Обратная связь