Скачать через торрент музыку Классный мюзикл 2: Каникулы High School Musical 2 - 2007, FLAC бесплатно без регистрации torrent

Статистика раздачи
Размер:  273 MB   |    Зарегистрирован:  6 лет 9 месяцев   |    .torrent скачан:  42 раза   |   
Раздают:  1  
   
загрузка...
 
Автор Сообщение

Galfimbul

avatar Galfimbul


Классный мюзикл 2: Каникулы / High School Musical 2

Жанр: Soundtrack
Год выпуска диска: 2007
Аудио кодек: FLAC
Тип рипа: tracks+.cue
Битрейт аудио: lossless
Продолжительность: 00:38:01

Трэклист:
1. High School Musical 2 Cast - What Time Is It? (3:18)
2. Sharpay & Ryan (Ashley Tisdale & Lucas Grabeel) - Fabulous (3:02)
3. High School Musical 2 Cast - Work This Out (3:04)
4. Troy & Gabriella (Zac Efron & Vanessa Hudgens) - You Are The Music In Me (3:28)
5. Chad & Ryan (Corbin Bleu & Lucas Grabeel) - I Don't Dance (3:37)
6. Sharpay & Troy (Ashley Tisdale & Zac Efron) - You Are The Music In Me (Sharpay Version) (2:29)
7. Gabriella & Troy (Vanessa Hudgens & Zac Efron) - Gotta Go My Own Way (3:42)
8. Troy Bolton (Zac Efron) - Bet On It (3:20)
9. Troy & Gabriella (Zac Efron & Vanessa Hudgens) - Everyday (4:38)
10. High School Musical 2 Cast - All For One (4:15)
11. Sharpay & Ryan (Ashley Tisdale & Lucas Grabeel) - Humuhumunukunukuapua'a (3:08)
Exact Audio Copy V0.99 prebeta 4 from 23. January 2008

EAC extraction logfile from 5. May 2009, 15:49

Various / High School Musical 2

Used drive : HL-DT-STDVDRAM GSA-4084N Adapter: 0 ID: 0

Read mode : Secure
Utilize accurate stream : Yes
Defeat audio cache : Yes
Make use of C2 pointers : No

Read offset correction : 667
Overread into Lead-In and Lead-Out : No
Fill up missing offset samples with silence : Yes
Delete leading and trailing silent blocks : No
Null samples used in CRC calculations : Yes
Used interface : Native Win32 interface for Win NT & 2000
Gap handling : Appended to previous track

Used output format : User Defined Encoder
Selected bitrate : 128 kBit/s
Quality : High
Add ID3 tag : No
Command line compressor : C:\Program Files (x86)\Exact Audio Copy\Flac\flac.exe
Additional command line options : -V -8 -T "artist=%a" -T "title=%t" -T "album=%g" -T "date=%y" -T "tracknumber=%n" -T "genre=%m" %s

TOC of the extracted CD

Track | Start | Length | Start sector | End sector
---------------------------------------------------------
1 | 0:00.00 | 3:18.73 | 0 | 14922
2 | 3:18.73 | 3:02.00 | 14923 | 28572
3 | 6:20.73 | 3:04.01 | 28573 | 42373
4 | 9:24.74 | 3:28.49 | 42374 | 58022
5 | 12:53.48 | 3:37.35 | 58023 | 74332
6 | 16:31.08 | 2:29.20 | 74333 | 85527
7 | 19:00.28 | 3:42.37 | 85528 | 102214
8 | 22:42.65 | 3:20.22 | 102215 | 117236
9 | 26:03.12 | 4:38.18 | 117237 | 138104
10 | 30:41.30 | 4:15.58 | 138105 | 157287
11 | 34:57.13 | 3:08.12 | 157288 | 171399
12 | 40:37.25 | 1:25.36 | 182800 | 189210

Track 1

Filename C:\EAC Rips\High School Musical 2 (2007)\01 - High School Musical 2 Cast - What Time Is It .wav

Pre-gap length 0:00:02.00

Peak level 99.9 %
Track quality 100.0 %
Test CRC 4FBA3F75
Copy CRC 4FBA3F75
Accurately ripped (confidence 55) [AE9FEFCA]
Copy OK

Track 2

Filename C:\EAC Rips\High School Musical 2 (2007)\02 - Sharpay & Ryan (Ashley Tisdale & Lucas Grabeel) - Fabulous.wav

Pre-gap length 0:00:00.97

Peak level 99.9 %
Track quality 100.0 %
Test CRC F6CAF01C
Copy CRC F6CAF01C
Accurately ripped (confidence 56) [21F71A81]
Copy OK

Track 3

Filename C:\EAC Rips\High School Musical 2 (2007)\03 - High School Musical 2 Cast - Work This Out.wav

Pre-gap length 0:00:01.30

Peak level 99.9 %
Track quality 100.0 %
Test CRC B41FEB6C
Copy CRC B41FEB6C
Accurately ripped (confidence 54) [FCD6CDD3]
Copy OK

Track 4

Filename C:\EAC Rips\High School Musical 2 (2007)\04 - Troy & Gabriella (Zac Efron & Vanessa Hudgens) - You Are The Music In Me.wav

Pre-gap length 0:00:00.70

Peak level 99.8 %
Track quality 100.0 %
Test CRC B0F13419
Copy CRC B0F13419
Accurately ripped (confidence 55) [7B929C03]
Copy OK

Track 5

Filename C:\EAC Rips\High School Musical 2 (2007)\05 - Chad & Ryan (Corbin Bleu & Lucas Grabeel) - I Don't Dance.wav

Pre-gap length 0:00:00.78

Peak level 99.9 %
Track quality 99.9 %
Test CRC 0E666566
Copy CRC 0E666566
Accurately ripped (confidence 55) [2308D15A]
Copy OK

Track 6

Filename C:\EAC Rips\High School Musical 2 (2007)\06 - Sharpay & Troy (Ashley Tisdale & Zac Efron) - You Are The Music In Me (Sharpay Version).wav

Pre-gap length 0:00:00.22

Peak level 99.8 %
Track quality 100.0 %
Test CRC 836F3AE5
Copy CRC 836F3AE5
Accurately ripped (confidence 54) [BE7C4EFE]
Copy OK

Track 7

Filename C:\EAC Rips\High School Musical 2 (2007)\07 - Gabriella & Troy (Vanessa Hudgens & Zac Efron) - Gotta Go My Own Way.wav

Pre-gap length 0:00:01.98

Peak level 99.9 %
Track quality 99.9 %
Test CRC 3105359D
Copy CRC 3105359D
Accurately ripped (confidence 54) [582D3AAD]
Copy OK

Track 8

Filename C:\EAC Rips\High School Musical 2 (2007)\08 - Troy Bolton (Zac Efron) - Bet On It.wav

Pre-gap length 0:00:00.13

Peak level 99.8 %
Track quality 100.0 %
Test CRC F0FC71EC
Copy CRC F0FC71EC
Accurately ripped (confidence 55) [D619CFDA]
Copy OK

Track 9

Filename C:\EAC Rips\High School Musical 2 (2007)\09 - Troy & Gabriella (Zac Efron & Vanessa Hudgens) - Everyday.wav

Pre-gap length 0:00:01.97

Peak level 99.9 %
Track quality 100.0 %
Test CRC 39A02236
Copy CRC 39A02236
Accurately ripped (confidence 53) [E08E9D40]
Copy OK

Track 10

Filename C:\EAC Rips\High School Musical 2 (2007)\10 - High School Musical 2 Cast - All For One.wav

Pre-gap length 0:00:00.24

Peak level 99.9 %
Track quality 100.0 %
Test CRC 64978378
Copy CRC 64978378
Accurately ripped (confidence 54) [030BA970]
Copy OK

Track 11

Filename C:\EAC Rips\High School Musical 2 (2007)\11 - Sharpay & Ryan (Ashley Tisdale & Lucas Grabeel) - Humuhumunukunukuapua'a.wav

Pre-gap length 0:00:01.98

Peak level 97.1 %
Track quality 100.0 %
Test CRC 8796DD34
Copy CRC 8796DD34
Accurately ripped (confidence 52) [A1C52D1C]
Copy OK

All tracks accurately ripped

No errors occurred

End of status report
AUDIOCHECKER v2.0 beta (build 457) - by Dester - opdester@freemail.hu
~~~~~~~~~~~~~~~~~~~~~~~~~~~~~~~~~~

Started at: воскресенье, 27. 09. 2009. - 12:31.28
11 files found

01 -===- D:\Music\-=LOSSLESS=-\Soundtrack\High School Musical\High School Musical 2 (2007)\11 - Sharpay & Ryan (Ashley Tisdale & Lucas Grabeel) - Humuhumunukunukuapua'a.flac
Extracted successfully
Conclusion: this track is CDDA with probability 100%
Tempfile successfully deleted.

02 -===- D:\Music\-=LOSSLESS=-\Soundtrack\High School Musical\High School Musical 2 (2007)\01 - High School Musical 2 Cast - What Time Is It .flac
Extracted successfully
Conclusion: this track is CDDA with probability 100%
Tempfile successfully deleted.

03 -===- D:\Music\-=LOSSLESS=-\Soundtrack\High School Musical\High School Musical 2 (2007)\02 - Sharpay & Ryan (Ashley Tisdale & Lucas Grabeel) - Fabulous.flac
Extracted successfully
Conclusion: this track is CDDA with probability 100%
Tempfile successfully deleted.

04 -===- D:\Music\-=LOSSLESS=-\Soundtrack\High School Musical\High School Musical 2 (2007)\03 - High School Musical 2 Cast - Work This Out.flac
Extracted successfully
Conclusion: this track is CDDA with probability 100%
Tempfile successfully deleted.

05 -===- D:\Music\-=LOSSLESS=-\Soundtrack\High School Musical\High School Musical 2 (2007)\04 - Troy & Gabriella (Zac Efron & Vanessa Hudgens) - You Are The Music In Me.flac
Extracted successfully
Conclusion: this track is CDDA with probability 100%
Tempfile successfully deleted.

06 -===- D:\Music\-=LOSSLESS=-\Soundtrack\High School Musical\High School Musical 2 (2007)\05 - Chad & Ryan (Corbin Bleu & Lucas Grabeel) - I Don't Dance.flac
Extracted successfully
Conclusion: this track is CDDA with probability 99%
Tempfile successfully deleted.

07 -===- D:\Music\-=LOSSLESS=-\Soundtrack\High School Musical\High School Musical 2 (2007)\06 - Sharpay & Troy (Ashley Tisdale & Zac Efron) - You Are The Music In Me (Sharpay Version).flac
Extracted successfully
Conclusion: this track is CDDA with probability 100%
Tempfile successfully deleted.

08 -===- D:\Music\-=LOSSLESS=-\Soundtrack\High School Musical\High School Musical 2 (2007)\07 - Gabriella & Troy (Vanessa Hudgens & Zac Efron) - Gotta Go My Own Way.flac
Extracted successfully
Conclusion: this track is CDDA with probability 100%
Tempfile successfully deleted.

09 -===- D:\Music\-=LOSSLESS=-\Soundtrack\High School Musical\High School Musical 2 (2007)\08 - Troy Bolton (Zac Efron) - Bet On It.flac
Extracted successfully
Conclusion: this track is CDDA with probability 100%
Tempfile successfully deleted.

10 -===- D:\Music\-=LOSSLESS=-\Soundtrack\High School Musical\High School Musical 2 (2007)\09 - Troy & Gabriella (Zac Efron & Vanessa Hudgens) - Everyday.flac
Extracted successfully
Conclusion: this track is CDDA with probability 100%
Tempfile successfully deleted.

11 -===- D:\Music\-=LOSSLESS=-\Soundtrack\High School Musical\High School Musical 2 (2007)\10 - High School Musical 2 Cast - All For One.flac
Extracted successfully
Conclusion: this track is CDDA with probability 100%
Tempfile successfully deleted.

Finished at: воскресенье, 27. 09. 2009. - 12:36.43 (operation time: 0:05.14)


Трекер:  [ 07-Июл-2011 23:32 ]

  

Скачать .torrent

Размер .torrent файла 12 KB


Размер: 273 MB
Хэш (hash) релиза: 65fb22cb10862f228aa3dd665c73827a3f07669d

Еще никто не оставлял запись к записи скачать торрент Классный мюзикл 2: Каникулы High School Musical 2 - 2007, FLAC . Будь первым!

!Обратная связь