Скачать через торрент музыку Ворон The Crow - 1994, APE бесплатно без регистрации torrent

Статистика раздачи
Размер:  414 MB   |    Зарегистрирован:  7 лет 4 месяца   |    .torrent скачан:  39 раз   |   
Раздают:  1  
   
загрузка...
 
Автор Сообщение

Galfimbul

avatar Galfimbul


Ворон / The Crow

Страна: USA
Жанр: Soundtrack
Год выпуска: 1994
Формат: APE (image + .cue)
Битрейт аудио: lossless
Продолжительность: 1:03:58
Трэклист:
01. Burn (6:39)
02. Golgotha Tenement Blues (4:01)
03. Big Empty (4:57)
04. Dead Souls (4:54)
05. Darkness (3:42)
06. Color Me Once (4:09)
07. Ghostrider (5:46)
08. Milktoast (3:59)
09. The Badge (3:55)
10. Slip Slide Melting (5:48)
11. After The Flesh (3:00)
12. Snakedriver (3:42)
13. Time Baby III (3:52)
14. It Can't Rain All The Time (5:35)
Exact Audio Copy V0.99 prebeta 3 from 28. July 2007

Отчёт EAC об извлечении, выполненном 14. декабря 2007, 21:48

Sound Track / The Crow

Дисковод: MATSHITADVD-RAM UJ-841S Adapter: 0 ID: 1

Режим чтения : Достоверность
Использование точного потока : Да
Отключение кэша аудио : Да
Использование указателей C2 : Нет

Коррекция смещения при чтении : 0
Способность читать области Lead-in и Lead-out : Нет
Заполнение пропущенных сэмплов тишиной : Да
Удаление блоков с тишиной в начале и конце : Нет
При вычислениях CRC использовались нулевые сэмплы : Да
Интерфейс : Установленный внешний ASPI-интерфейс

Выходной формат : Внутренние WAV-операции
Формат сэмплов : 44.100 Гц; 16 бит; стерео

TOC извлечённого CD

Трек | Старт | Длительность | Начальный сектор | Конечный сектор
---------------------------------------------------------------------
1 | 0:00.00 | 6:39.37 | 0 | 29961
2 | 6:39.37 | 4:01.08 | 29962 | 48044
3 | 10:40.45 | 4:56.40 | 48045 | 70284
4 | 15:37.10 | 4:53.72 | 70285 | 92331
5 | 20:31.07 | 3:41.40 | 92332 | 108946
6 | 24:12.47 | 4:09.23 | 108947 | 127644
7 | 28:21.70 | 5:45.42 | 127645 | 153561
8 | 34:07.37 | 3:59.20 | 153562 | 171506
9 | 38:06.57 | 3:54.65 | 171507 | 189121
10 | 42:01.47 | 5:47.68 | 189122 | 215214
11 | 47:49.40 | 2:59.40 | 215215 | 228679
12 | 50:49.05 | 3:41.55 | 228680 | 245309
13 | 54:30.60 | 3:52.12 | 245310 | 262721
14 | 58:22.72 | 5:35.13 | 262722 | 287859

Характеристики диапазона извлечения и сообщения об ошибках

Выбранный диапазон

Имя файла C:\Documents and Settings\Phoebus\Мои документы\Моя музыка\OST\The Crow\The Crow OST.wav

Пиковый уровень 100.0 %
Качество диапазона 99.9 %
CRC копии DA45FEE3
Копирование... OK

Ошибок не произошло

Конец отчёта


Трекер:  [ 07-Июл-2011 23:32 ]

  

Скачать .torrent

Размер .torrent файла 17 KB


Размер: 414 MB
Хэш (hash) релиза: 4168664d566183a68b8cef8258aef6c36413a142

Еще никто не оставлял запись к записи скачать торрент Ворон The Crow - 1994, APE . Будь первым!

!Обратная связь