Скачать через торрент музыку VA - 9 2 weeks бесплатно без регистрации torrent

Статистика раздачи
Размер:  253 MB   |    Зарегистрирован:  6 лет 9 месяцев   |    .torrent скачан:  42 раза   |   
Раздают:  1  
   
загрузка...
 
Автор Сообщение

Galfimbul

avatar Galfimbul


Various Artists - 9 1/2 weeks / 9,5 недель

Жанр: Soundtrack
Год выпуска диска: 1986
Производитель диска: Holland
Аудио кодек: FLAC
Тип рипа: image+.cue
Битрейт аудио: lossless
Продолжительность: 41:45

Трэклист:
1. John Taylor — I Do What I Do (3:45)
2. Luba — The Best Is Yet To Come (3:54)
3. Bryan Ferry — Slave To Love (4:26)
4. Dalbello — Black On Black (4:01)
5. Corey Hart — Eurasian Eyes (5:28)
6. Joe Cocker — You Can Leave Your Hat On (4:14)
7. Devo — Bread And Butter (2:32)
8. Eurythmics — The City Never Sleeps (6:23)
9. Stewart Copeland — Cannes (3:11)
10. Luba — Let It Go (3:40)

Доп. информация - о фильме:
История внезапно вспыхнувшей страсти случайно встретившихся мужчины и женщины, которая длилась всего девять с половиной недель. Когда Она встречает Его, ее уравновешенность улетучивается в одно мгновение. Изощренный соблазнитель втягивает ее в эффектную любовную игру, которая заставляет ее отказаться от прежних жизненных принципов. Холодный прагматизм побежден эротическими фантазиями, претендующими на смысл жизни...
 
Exact Audio Copy V0.99 prebeta 4 from 23. January 2008

EAC extraction logfile from 4. January 2009, 16:53

Various / 9 1/2 Weeks

Used drive : HL-DT-STDVDRAM_GSA-T20N Adapter: 0 ID: 0

Read mode : SecureUtilize accurate stream : YesDefeat audio cache : YesMake use of C2 pointers : No

Read offset correction : 667Overread into Lead-In and Lead-Out : NoFill up missing offset samples with silence : YesDelete leading and trailing silent blocks : NoNull samples used in CRC calculations : YesUsed interface : Native Win32 interface for Win NT & 2000

Used output format : Internal WAV RoutinesSample format : 44.100 Hz; 16 Bit; Stereo

TOC of the extracted CD

Track | Start | Length | Start sector | End sector --------------------------------------------------------- 1 | 0:00.33 | 3:46.20 | 33 | 17002 2 | 3:46.53 | 3:55.05 | 17003 | 34632 3 | 7:41.58 | 4:27.22 | 34633 | 54679 4 | 12:09.05 | 4:01.65 | 54680 | 72819 5 | 16:10.70 | 5:29.28 | 72820 | 97522 6 | 21:40.23 | 4:15.27 | 97523 | 116674 7 | 25:55.50 | 2:32.38 | 116675 | 128112 8 | 28:28.13 | 6:24.10 | 128113 | 156922 9 | 34:52.23 | 3:11.35 | 156923 | 171282 10 | 38:03.58 | 3:41.35 | 171283 | 187892

Range status and errors

Selected range

Filename C:\Torrent\Soundtrack - 9 1-2 Weeks.wav

Peak level 100.0 % Range quality 100.0 % Copy CRC 80FF2458 Copy OK

No errors occurred

AccurateRip summary

Track 1 accurately ripped (confidence 8) [F78A1A1D]Track 2 accurately ripped (confidence 8) [71F99F08]Track 3 accurately ripped (confidence 8) [2BA7D6EC]Track 4 accurately ripped (confidence 9) [6B7EEB03]Track 5 accurately ripped (confidence 9) [34D29E3F]Track 6 accurately ripped (confidence 9) [423DDF42]Track 7 accurately ripped (confidence 9) [809A416A]Track 8 accurately ripped (confidence 9) [0C0E2155]Track 9 accurately ripped (confidence 8) [30CB230A]Track 10 accurately ripped (confidence 9) [97B6D81D]

All tracks accurately ripped

End of status report


Трекер:  [ 07-Июл-2011 23:30 ]

  

Скачать .torrent

Размер .torrent файла 20 KB


Размер: 253 MB
Хэш (hash) релиза: fbde205fda9c24df94630fe4fbba688a363aea9a

Еще никто не оставлял запись к записи скачать торрент VA - 9 2 weeks . Будь первым!

!Обратная связь