Скачать через торрент музыку Archive - Michel Vaillant - 2003, FLAC бесплатно без регистрации torrent

Статистика раздачи
Размер:  410 MB   |    Зарегистрирован:  6 лет 9 месяцев   |    .torrent скачан:  47 раз   |   
Раздают:  1  
   
загрузка...
 
Автор Сообщение

Galfimbul

avatar Galfimbul


Archive - Michel Vaillant

Жанр: Soundtrack/Trip-Hop/Progressive Rock
Год выпуска диска: 2003
Производитель диска: France
Аудио кодек: FLAC
Тип рипа: tracks+.cue
Битрейт аудио: lossless
Продолжительность: 00:54:41/00:20:54

Archive - Michel Vaillant
1. Le Mans (4:51)
2. Bridge Scene (5:32)
3. Helic
optere (6:12)
4. Come To Me 1 (3:13)
5. Vaillant Theme (3:48)
6. Nothing (3:22)
7. Friend (4:26)
8. Nightm
are Scene (3:19)
9. Leader Theme (3:36)
10. Nightmare Is Over (4:36)
11. Vaillant (Acoustic) (1:34)
12. Night Time (2:10)
13. Red (1:27)
14. Come To Me 2 (6:35)
Exact Audio Copy V0.99 prebeta 5 from 4. May 2009

EAC extraction logfile from 16. July 2009, 2:36

Archive / Michel Vaillant

Used drive : _NEC DVD_RW ND-3550A Adapter: 0 ID: 0

Read mode : Secure
Utilize accurate stream : Yes
Defeat audio cache : Yes
Make use of C2 pointers : No

Read offset correction : 48
Overread into Lead-In and Lead-Out : No
Fill up missing offset samples with silence : Yes
Delete leading and trailing silent blocks : No
Null samples used in CRC calculations : No
Used interface : Installed external ASPI interface
Gap handling : Appended to previous track

Used output format : Internal WAV Routines
Sample format : 44.100 Hz; 16 Bit; Stereo

TOC of the extracted CD

Track | Start | Length | Start sector | End sector
---------------------------------------------------------
1 | 0:00.00 | 4:51.54 | 0 | 21878
2 | 4:51.54 | 5:32.68 | 21879 | 46846
3 | 10:24.47 | 6:12.64 | 46847 | 74810
4 | 16:37.36 | 3:13.44 | 74811 | 89329
5 | 19:51.05 | 3:48.30 | 89330 | 106459
6 | 23:39.35 | 3:22.49 | 106460 | 121658
7 | 27:02.09 | 4:26.01 | 121659 | 141609
8 | 31:28.10 | 3:19.59 | 141610 | 156593
9 | 34:47.69 | 3:36.02 | 156594 | 172795
10 | 38:23.71 | 4:36.69 | 172796 | 193564
11 | 43:00.65 | 1:34.69 | 193565 | 200683
12 | 44:35.59 | 2:10.45 | 200684 | 210478
13 | 46:46.29 | 1:27.09 | 210479 | 217012
14 | 48:13.38 | 6:35.18 | 217013 | 246655

Track 1

Filename C:\Documents and Settings\Администратор\Рабочий стол\Michel Vaillant Soundtrack - 2003\Michel Vaillant\01 - Le Mans.wav

Pre-gap length 0:00:02.00

Peak level 99.9 %
Track quality 100.0 %
Test CRC BE071CA2
Copy CRC BE071CA2
Accurately ripped (confidence 12) [0209BF64]
Copy OK

Track 2

Filename C:\Documents and Settings\Администратор\Рабочий стол\Michel Vaillant Soundtrack - 2003\Michel Vaillant\02 - Bridge Scene.wav

Peak level 99.9 %
Track quality 100.0 %
Test CRC 64A5B921
Copy CRC 64A5B921
Accurately ripped (confidence 12) [59BF59A4]
Copy OK

Track 3

Filename C:\Documents and Settings\Администратор\Рабочий стол\Michel Vaillant Soundtrack - 2003\Michel Vaillant\03 - Helicoptere.wav

Pre-gap length 0:00:00.60

Peak level 99.5 %
Track quality 100.0 %
Test CRC 3537A28D
Copy CRC 3537A28D
Accurately ripped (confidence 12) [775E1007]
Copy OK

Track 4

Filename C:\Documents and Settings\Администратор\Рабочий стол\Michel Vaillant Soundtrack - 2003\Michel Vaillant\04 - Come To Me 1.wav

Pre-gap length 0:00:01.48

Peak level 99.9 %
Track quality 99.9 %
Test CRC 96E7EE20
Copy CRC 96E7EE20
Accurately ripped (confidence 12) [134E76F2]
Copy OK

Track 5

Filename C:\Documents and Settings\Администратор\Рабочий стол\Michel Vaillant Soundtrack - 2003\Michel Vaillant\05 - Vaillant Theme.wav

Pre-gap length 0:00:01.47

Peak level 99.9 %
Track quality 100.0 %
Test CRC F84E88C4
Copy CRC 479C1564
Accurately ripped (confidence 12) [EB515ACB]
Copy OK

Track 6

Filename C:\Documents and Settings\Администратор\Рабочий стол\Michel Vaillant Soundtrack - 2003\Michel Vaillant\06 - Nothing.wav

Peak level 100.0 %
Track quality 100.0 %
Test CRC 03E18F05
Copy CRC 03E18F05
Accurately ripped (confidence 12) [93AD9918]
Copy OK

Track 7

Filename C:\Documents and Settings\Администратор\Рабочий стол\Michel Vaillant Soundtrack - 2003\Michel Vaillant\07 - Friend.wav

Pre-gap length 0:00:03.16

Peak level 99.9 %
Track quality 100.0 %
Test CRC A3F22E93
Copy CRC A3F22E93
Accurately ripped (confidence 12) [D276F11E]
Copy OK

Track 8

Filename C:\Documents and Settings\Администратор\Рабочий стол\Michel Vaillant Soundtrack - 2003\Michel Vaillant\08 - Nightmare Scene.wav

Pre-gap length 0:00:00.56

Peak level 99.9 %
Track quality 100.0 %
Test CRC BCD51836
Copy CRC BCD51836
Accurately ripped (confidence 12) [6BB84D42]
Copy OK

Track 9

Filename C:\Documents and Settings\Администратор\Рабочий стол\Michel Vaillant Soundtrack - 2003\Michel Vaillant\09 - Leader Theme.wav

Pre-gap length 0:00:01.24

Peak level 99.9 %
Track quality 100.0 %
Test CRC 29D4CFFB
Copy CRC 29D4CFFB
Accurately ripped (confidence 12) [7D9A19C3]
Copy OK

Track 10

Filename C:\Documents and Settings\Администратор\Рабочий стол\Michel Vaillant Soundtrack - 2003\Michel Vaillant\10 - Nightmare Is Over.wav

Pre-gap length 0:00:02.19

Peak level 99.9 %
Track quality 99.9 %
Test CRC 6141AA47
Copy CRC 6141AA47
Accurately ripped (confidence 12) [67BE2F19]
Copy OK

Track 11

Filename C:\Documents and Settings\Администратор\Рабочий стол\Michel Vaillant Soundtrack - 2003\Michel Vaillant\11 - Vaillant (Acoustic).wav

Pre-gap length 0:00:01.61

Peak level 79.1 %
Track quality 100.0 %
Test CRC 62008395
Copy CRC 62008395
Accurately ripped (confidence 12) [7329D629]
Copy OK

Track 12

Filename C:\Documents and Settings\Администратор\Рабочий стол\Michel Vaillant Soundtrack - 2003\Michel Vaillant\12 - Night Time.wav

Pre-gap length 0:00:02.23

Peak level 99.9 %
Track quality 100.0 %
Test CRC B5D3B004
Copy CRC B5D3B004
Accurately ripped (confidence 12) [7B11BCC2]
Copy OK

Track 13

Filename C:\Documents and Settings\Администратор\Рабочий стол\Michel Vaillant Soundtrack - 2003\Michel Vaillant\13 - Red.wav

Pre-gap length 0:00:01.62

Peak level 98.8 %
Track quality 100.0 %
Test CRC BA60BCC3
Copy CRC BA60BCC3
Accurately ripped (confidence 12) [6A5816A2]
Copy OK

Track 14

Filename C:\Documents and Settings\Администратор\Рабочий стол\Michel Vaillant Soundtrack - 2003\Michel Vaillant\14 - Come To Me 2.wav

Pre-gap length 0:00:01.49

Peak level 99.8 %
Track quality 100.0 %
Test CRC 92656EC2
Copy CRC 92656EC2
Accurately ripped (confidence 12) [7BE80F06]
Copy OK

All tracks accurately ripped

No errors occurred

End of status report
Michel Vaillant (By Archive Bande Originale du Film) - Extraits
1. Opening credits (includes nightmare scene) (3:25)
2. Indian th
eme (1:31)
3. Brass indian (0.53)
4. Main bridge scene (including sound design) (3:15)
5. End of bridge
scene, keen for a dead child (2:20)
6. Falaise (1:20)
7. Chase scene (2:17)
8. Blue
room (1:29)
9. Crash scene (2:42)
10. Helicoptere (1:42)
Exact Audio Copy V0.99 prebeta 5 from 4. May 2009

EAC extraction logfile from 16. July 2009, 3:27

Archive / Michel Vaillant (Extraits)

Used drive : _NEC DVD_RW ND-3550A Adapter: 0 ID: 0

Read mode : Secure
Utilize accurate stream : Yes
Defeat audio cache : Yes
Make use of C2 pointers : No

Read offset correction : 48
Overread into Lead-In and Lead-Out : No
Fill up missing offset samples with silence : Yes
Delete leading and trailing silent blocks : No
Null samples used in CRC calculations : No
Used interface : Installed external ASPI interface
Gap handling : Appended to previous track

Used output format : Internal WAV Routines
Sample format : 44.100 Hz; 16 Bit; Stereo

TOC of the extracted CD

Track | Start | Length | Start sector | End sector
---------------------------------------------------------
1 | 0:00.00 | 3:25.30 | 0 | 15404
2 | 3:25.30 | 1:31.39 | 15405 | 22268
3 | 4:56.69 | 0:53.50 | 22269 | 26293
4 | 5:50.44 | 3:15.15 | 26294 | 40933
5 | 9:05.59 | 2:20.17 | 40934 | 51450
6 | 11:26.01 | 1:20.37 | 51451 | 57487
7 | 12:46.38 | 2:17.74 | 57488 | 67836
8 | 15:04.37 | 1:29.12 | 67837 | 74523
9 | 16:33.49 | 2:42.19 | 74524 | 86692
10 | 19:15.68 | 1:42.38 | 86693 | 94380

Track 1

Filename C:\Documents and Settings\Администратор\Рабочий стол\Michel Vaillant Soundtrack - 2003\Michel Vaillant (By Archive Bande Originale du Film) Extraits\01 - Opening Credits.wav

Pre-gap length 0:00:02.00

Peak level 99.8 %
Track quality 100.0 %
Test CRC 28EC493C
Copy CRC 28EC493C
Track not present in AccurateRip database
Copy OK

Track 2

Filename C:\Documents and Settings\Администратор\Рабочий стол\Michel Vaillant Soundtrack - 2003\Michel Vaillant (By Archive Bande Originale du Film) Extraits\02 - Indian Theme.wav

Pre-gap length 0:00:02.00

Peak level 100.0 %
Track quality 100.0 %
Test CRC 7863CA6E
Copy CRC 7863CA6E
Track not present in AccurateRip database
Copy OK

Track 3

Filename C:\Documents and Settings\Администратор\Рабочий стол\Michel Vaillant Soundtrack - 2003\Michel Vaillant (By Archive Bande Originale du Film) Extraits\03 - Brass Indian.wav

Pre-gap length 0:00:02.00

Peak level 99.9 %
Track quality 100.0 %
Test CRC D126E157
Copy CRC D126E157
Track not present in AccurateRip database
Copy OK

Track 4

Filename C:\Documents and Settings\Администратор\Рабочий стол\Michel Vaillant Soundtrack - 2003\Michel Vaillant (By Archive Bande Originale du Film) Extraits\04 - Main Bridge Scene.wav

Pre-gap length 0:00:02.00

Peak level 99.8 %
Track quality 100.0 %
Test CRC F4159075
Copy CRC F4159075
Track not present in AccurateRip database
Copy OK

Track 5

Filename C:\Documents and Settings\Администратор\Рабочий стол\Michel Vaillant Soundtrack - 2003\Michel Vaillant (By Archive Bande Originale du Film) Extraits\05 - End Of Bridge Scene,Keen For A Dead Child.wav

Pre-gap length 0:00:02.00

Peak level 98.5 %
Track quality 100.0 %
Test CRC C0CA7C32
Copy CRC C0CA7C32
Track not present in AccurateRip database
Copy OK

Track 6

Filename C:\Documents and Settings\Администратор\Рабочий стол\Michel Vaillant Soundtrack - 2003\Michel Vaillant (By Archive Bande Originale du Film) Extraits\06 - Falaise.wav

Pre-gap length 0:00:02.00

Peak level 99.8 %
Track quality 100.0 %
Test CRC B90FDC01
Copy CRC B90FDC01
Track not present in AccurateRip database
Copy OK

Track 7

Filename C:\Documents and Settings\Администратор\Рабочий стол\Michel Vaillant Soundtrack - 2003\Michel Vaillant (By Archive Bande Originale du Film) Extraits\07 - Chase Scene.wav

Pre-gap length 0:00:02.00

Peak level 99.7 %
Track quality 100.0 %
Test CRC 8A1BAC13
Copy CRC 8A1BAC13
Track not present in AccurateRip database
Copy OK

Track 8

Filename C:\Documents and Settings\Администратор\Рабочий стол\Michel Vaillant Soundtrack - 2003\Michel Vaillant (By Archive Bande Originale du Film) Extraits\08 - Blue Room.wav

Pre-gap length 0:00:02.00

Peak level 99.6 %
Track quality 100.0 %
Test CRC 4126D681
Copy CRC 4126D681
Track not present in AccurateRip database
Copy OK

Track 9

Filename C:\Documents and Settings\Администратор\Рабочий стол\Michel Vaillant Soundtrack - 2003\Michel Vaillant (By Archive Bande Originale du Film) Extraits\09 - Crash Scene.wav

Pre-gap length 0:00:02.00

Peak level 99.9 %
Track quality 100.0 %
Test CRC C452A884
Copy CRC C452A884
Track not present in AccurateRip database
Copy OK

Track 10

Filename C:\Documents and Settings\Администратор\Рабочий стол\Michel Vaillant Soundtrack - 2003\Michel Vaillant (By Archive Bande Originale du Film) Extraits\10 - Helicoptere.wav

Pre-gap length 0:00:02.00

Peak level 99.8 %
Track quality 100.0 %
Test CRC A13EB99A
Copy CRC A13EB99A
Track not present in AccurateRip database
Copy OK

None of the tracks are present in the AccurateRip database

No errors occurred

End of status report


Трекер:  [ 07-Июл-2011 23:30 ]

  

Скачать .torrent

Размер .torrent файла 37 KB


Размер: 410 MB
Хэш (hash) релиза: 54d0abc4b21ea21bfd7e051ae3244f07dcedffa8

Еще никто не оставлял запись к записи скачать торрент Archive - Michel Vaillant - 2003, FLAC . Будь первым!

!Обратная связь