Скачать через торрент музыку Музыка из кинофильма Fantomas Фантомас бесплатно без регистрации torrent

Статистика раздачи
Размер:  230 MB   |    Зарегистрирован:  6 лет 9 месяцев   |    .torrent скачан:  60 раз   |   
Раздают:  1  
   
загрузка...
 
Автор Сообщение

Galfimbul

avatar Galfimbul


Музыка из кинофильма Fantomas

Жанр: Score
Год выпуска диска: 2004
Производитель диска: АРК-Систем Рекордс (РФ)
Аудио кодек: APE
Тип рипа: image+.cue
Битрейт аудио: lossless
Продолжительность: 44:38
Трэклист:
01. Fantomas (1:37)
02. Fandor Au Cimetiere (2:08)
03. Fantomas Aux Grandex Orgues (1:34)
04. Ma Chere Helene (3:13)
05. Bienvenue Chez Fantomas (1:58)
06. Theme De Fantomas (Version Grandes Orgues) (1:08)
07. Fantomas S'echappe (1:30)
08. Fantomas Se Dechaine (1:40)
09. Une Embre Davis La Nuit (1:25)
10. Rome (1:07)
11. Juve S'explique (2:07)
12. Hotel (0:48)
13. Qu Est Le Bien? Ou Est Le Mat? (1:53)
14. Ma Chere Helen (Version 2) (0:52)
15. Fantomase Furte (2:30)
16. Farandole Interpol (1:34)
17. Fandor Se Dechaine (2:32)
18. Fandor Et Juve (2:08)
19. Fantomas Cantre Scotland-Yard (2:23)
20. Operation Arabian (2:18)
21. Une Ds Dans La Chambre (1:27)
22. Le Lit (1:11)
23. Mystere Dons Les Douves (2:48)
24. L'ultime Evasion (2:42)
 
Exact Audio Copy V0.99 prebeta 4 from 23. January 2008

Отчёт EAC об извлечении, выполненном 24. января 2010, 22:12

- / Fantomas Film Soundtrack

Дисковод: PLEXTOR DVDR PX-760A Adapter: 3 ID: 1

Режим чтения : ДостоверностьИспользование точного потока : ДаОтключение кэша аудио : ДаИспользование указателей C2 : Нет

Коррекция смещения при чтении : 30Способность читать области Lead-in и Lead-out : ДаЗаполнение пропущенных сэмплов тишиной : ДаУдаление блоков с тишиной в начале и конце : НетПри вычислениях CRC использовались нулевые сэмплы : ДаИнтерфейс : Установленный внешний ASPI-интерфейс

Выходной формат : Monkey's Audio Lossless Encoder v3.99 DLLФормат сэмплов : Normal Lossless Compression

TOC извлечённого CD

Трек | Старт | Длительность | Начальный сектор | Конечный сектор --------------------------------------------------------------------- 1 | 0:00.00 | 1:37.35 | 0 | 7309 2 | 1:37.35 | 2:08.17 | 7310 | 16926 3 | 3:45.52 | 1:33.69 | 16927 | 23970 4 | 5:19.46 | 3:13.33 | 23971 | 38478 5 | 8:33.04 | 1:57.67 | 38479 | 47320 6 | 10:30.71 | 1:08.10 | 47321 | 52430 7 | 11:39.06 | 1:29.69 | 52431 | 59174 8 | 13:09.00 | 1:39.69 | 59175 | 66668 9 | 14:48.69 | 1:25.25 | 66669 | 73068 10 | 16:14.19 | 1:06.68 | 73069 | 78086 11 | 17:21.12 | 2:06.51 | 78087 | 87587 12 | 19:27.63 | 0:47.54 | 87588 | 91166 13 | 20:15.42 | 1:53.51 | 91167 | 99692 14 | 22:09.18 | 0:52.48 | 99693 | 103640 15 | 23:01.66 | 2:30.48 | 103641 | 114938 16 | 25:32.39 | 1:34.69 | 114939 | 122057 17 | 27:07.33 | 2:31.72 | 122058 | 133454 18 | 29:39.30 | 2:07.54 | 133455 | 143033 19 | 31:47.09 | 2:23.24 | 143034 | 153782 20 | 34:10.33 | 2:18.26 | 153783 | 164158 21 | 36:28.59 | 1:27.36 | 164159 | 170719 22 | 37:56.20 | 1:10.46 | 170720 | 176015 23 | 39:06.66 | 2:48.48 | 176016 | 188663 24 | 41:55.39 | 2:42.41 | 188664 | 200854

Характеристики диапазона извлечения и сообщения об ошибках

Выбранный диапазон

Имя файла F:\Fantomas\Fantomas Film Soundtrack.ape

Пиковый уровень 100.0 % Качество диапазона 100.0 % CRC копии 87ACFA1A Копирование... OK

Ошибок не произошло

AccurateRip: сводка

Трек 1 точное извлечение (доверие 1) [B7B5FB67]Трек 2 точное извлечение (доверие 1) [81F73676]Трек 3 точное извлечение (доверие 1) [E8A81864]Трек 4 точное извлечение (доверие 1) [8635D5B2]Трек 5 точное извлечение (доверие 1) [186D4649]Трек 6 точное извлечение (доверие 1) [DBC135BB]Трек 7 точное извлечение (доверие 1) [5CF7C1BB]Трек 8 точное извлечение (доверие 1) [CBD129EA]Трек 9 точное извлечение (доверие 1) [E42EDBF6]Трек 10 точное извлечение (доверие 1) [9DDB7D5D]Трек 11 точное извлечение (доверие 1) [CB132E2D]Трек 12 точное извлечение (доверие 1) [298FD6C5]Трек 13 точное извлечение (доверие 1) [FC6FFA8A]Трек 14 точное извлечение (доверие 1) [494D59E2]Трек 15 точное извлечение (доверие 1) [C4D21805]Трек 16 точное извлечение (доверие 1) [43536D0C]Трек 17 точное извлечение (доверие 1) [288B10CA]Трек 18 точное извлечение (доверие 1) [3A0139BE]Трек 19 точное извлечение (доверие 1) [F8A58F8B]Трек 20 точное извлечение (доверие 1) [3E1D6CE6]Трек 21 точное извлечение (доверие 1) [418EA341]Трек 22 точное извлечение (доверие 1) [E2E73024]Трек 23 точное извлечение (доверие 1) [129BF0BD]Трек 24 точное извлечение (доверие 1) [E14BD326]

Все треки извлечены точно

Конец отчёта
 
REM DATE 2004REM DISCID 420A7618REM COMMENT "ExactAudioCopy v0.99pb4"PERFORMER "Michel Magne"TITLE "Fantomas Film Soundtrack"FILE "Fantomas Film Soundtrack.ape" WAVE TRACK 01 AUDIO TITLE "Fantomas" PERFORMER "Michel Magne" INDEX 01 00:00:00 TRACK 02 AUDIO TITLE "Fandor Au Cimetiere" PERFORMER "Michel Magne" INDEX 01 01:37:35 TRACK 03 AUDIO TITLE "Fantomas Aux Grandex Orgues" PERFORMER "Michel Magne" INDEX 01 03:45:52 TRACK 04 AUDIO TITLE "Ma Chere Helene" PERFORMER "Michel Magne" INDEX 01 05:19:46 TRACK 05 AUDIO TITLE "Bienvenue Chez Fantomas" PERFORMER "Michel Magne" INDEX 01 08:33:04 TRACK 06 AUDIO TITLE "Theme De Fantomas (Version Grandes Orgues)" PERFORMER "Michel Magne" INDEX 01 10:30:71 TRACK 07 AUDIO TITLE "Fantomas S'echappe" PERFORMER "Michel Magne" INDEX 01 11:39:06 TRACK 08 AUDIO TITLE "Fantomas Se Dechaine" PERFORMER "Michel Magne" INDEX 01 13:09:00 TRACK 09 AUDIO TITLE "Une Embre Davis La Nuit" PERFORMER "Michel Magne" INDEX 01 14:48:69 TRACK 10 AUDIO TITLE "Rome" PERFORMER "Michel Magne" INDEX 01 16:14:19 TRACK 11 AUDIO TITLE "Juve S'explique" PERFORMER "Michel Magne" INDEX 01 17:21:12 TRACK 12 AUDIO TITLE "Hotel" PERFORMER "Michel Magne" INDEX 01 19:27:63 TRACK 13 AUDIO TITLE "Qu Est Le Bien? Ou Est Le Mat?" PERFORMER "Michel Magne" INDEX 01 20:15:42 TRACK 14 AUDIO TITLE "Ma Chere Helen (Version 2)" PERFORMER "Michel Magne" INDEX 01 22:09:18 TRACK 15 AUDIO TITLE "Fantomase Furte" PERFORMER "Michel Magne" INDEX 01 23:01:66 TRACK 16 AUDIO TITLE "Farandole Interpol" PERFORMER "Michel Magne" INDEX 01 25:32:39 TRACK 17 AUDIO TITLE "Fandor Se Dechaine" PERFORMER "Michel Magne" INDEX 01 27:07:33 TRACK 18 AUDIO TITLE "Fandor Et Juve" PERFORMER "Michel Magne" INDEX 01 29:39:30 TRACK 19 AUDIO TITLE "Fantomas Cantre Scotland-Yard" PERFORMER "Michel Magne" INDEX 01 31:47:09 TRACK 20 AUDIO TITLE "Operation Arabian" PERFORMER "Michel Magne" INDEX 01 34:10:33 TRACK 21 AUDIO TITLE "Une DS Dans La Chambre" PERFORMER "Michel Magne" INDEX 01 36:28:59 TRACK 22 AUDIO TITLE "Le Lit" PERFORMER "Michel Magne" INDEX 01 37:56:20 TRACK 23 AUDIO TITLE "Mystere Dons Les Douves" PERFORMER "Michel Magne" INDEX 01 39:06:66 TRACK 24 AUDIO TITLE "L'ultime Evasion" PERFORMER "Michel Magne" INDEX 01 41:55:39


Трекер:  [ 07-Июл-2011 23:29 ]

  

Скачать .torrent

Размер .torrent файла 19 KB


Размер: 230 MB
Хэш (hash) релиза: bb5373dbf591cb48f19ec6feecff201bf5fff927

Еще никто не оставлял запись к записи скачать торрент Музыка из кинофильма Fantomas Фантомас . Будь первым!

!Обратная связь