Скачать через торрент музыку "Passion" Peter Gabriel - to the Martin Scorsese film"The Last Temptation of Christ "- 1988, FLAC бесплатно без регистрации torrent

Статистика раздачи
Размер:  322 MB   |    Зарегистрирован:  7 лет 1 месяц   |    .torrent скачан:  44 раза   |   
Раздают:  1  
   
загрузка...
 
Автор Сообщение

Galfimbul

avatar Galfimbul


"Passion" Peter Gabriel -" to the Martin Scorsese film "The Last Temptation of Christ" 1988

Жанр: soundtrack
Год выпуска диска: 1988
Производитель диска: uk+holland
Аудио кодек: FLAC
Тип рипа: image+.cue
Битрейт аудио: lossless
Продолжительность: 1:07:00
Трэклист:
1. The Feeling Begins (Gabriel) - 4:00
2. Gethsemane (Gabriel) - 1:23
3. Of These, Hope (Gabriel) - 4:05
4. Lazarus Raised (Gabriel) - :36
5. Of These, Hope (Reprise) (Gabriel) - 1:06
6. In Doubt (Gabriel) - 2:07
7. A Different Drum (Gabriel) - 6:05
8. Zaar (Gabriel) - 4:44
9. Troubled (Gabriel) - 2:46
10. Open (Gabriel/Shankar) - 3:18
11. Before Night Falls (Gabriel) - 2:16
12. With This Love (Gabriel) - 3:36
13. Sandstorm (Gabriel) - 2:55
14. Stigmata (Gabriel/Zadeh) - 2:24
15. Passion (Gabriel/Zadeh) - 7:36
16. With This Love - Choir [Choir] (Gabriel/Zadeh) - 3:19
17. Wall of Breath (Gabriel) - 2:25
18. The Promise of Shadows (Gabriel) - 2:12
19. Disturbed (Gabriel) - 3:07
20. It Is Accomplished (Gabriel) - 3:30
21. Bread and Wine (Gabriel) - 2:23
Доп. информация:
Режиссер: Мартин Скорсезе /Martin Scorsese/
В ролях: Уиллем Дефо /Willem Dafoe/, Харви Кайтел /Harvey Keitel/, Барбара Херши /Barbara Hershey/, Хэрри Дин Стэнтон /Harry Dean Stanton/, Дэвид Боуи /David Bowie/, Верна Блум /Verna Bloom/, Андре Грегори /Andre Gregory/, Ирвин Кершнер /Irvin Kershner/, Джульет Кэйтон /Juliette Caton/, Лео Дэмиэн /Leo Damian/, Робертс Блоссом /Roberts Blossom/

Поставленный по роману Никоса Казандзакиса, фильм рассказывает об Иисусе Христе с очень нетрадиционной точки зрения. Иисус показан сомневающимся и нерешительным. Он понимает, что избран Богом, чтобы нести его Слово людям, но ведь с таким же успехом на его месте мог быть любой другой. Неканоническая трактовка Нового Завета вызвала скандал в клерикальных кругах, и, как это чаще всего бывает, послужила дополнительной рекламой фильму. Скорсезе получил "оскарную" номинацию за режиссуру. Смотрится картина с огромным интересом. (Иванов М.)

Оператор: Майкл Боллхауз /Michael Ballhaus/
Сценарист: Пол Шрэдер /Paul Schrader/
Продюсер: Барбара Де Фина /Barbara De Fina/
Монтажер: Телма Скунмэйкер /Thelma Schoonmaker/
Композитор: Питер Гэбриэл /Peter Gabriel/
Спецэффекты: Джино Гальяно /Gino Galliano/, Иджинио Фиорентини /Iginio Fiorentini/
Хореография: Лахсен Зинун /Lahcen Zinoune/
По произведению: Никос Казантзакис /Nikos Kazantzakis/
Exact Audio Copy V0.99 prebeta 4 from 23. January 2008

Отчёт EAC об извлечении, выполненном 13. февраля 2009, 22:29

Peter Gabriel / Passion

Дисковод: ASUS DRW-1608P Adapter: 0 ID: 0

Режим чтения : Достоверность
Использование точного потока : Да
Отключение кэша аудио : Да
Использование указателей C2 : Нет

Коррекция смещения при чтении : 48
Способность читать области Lead-in и Lead-out : Нет
Заполнение пропущенных сэмплов тишиной : Да
Удаление блоков с тишиной в начале и конце : Нет
При вычислениях CRC использовались нулевые сэмплы : Нет
Интерфейс : Установленный внешний ASPI-интерфейс

Выходной формат : Пользовательский кодировщик
Выбранный битрейт : 1024 kBit/s
Качество : Высокий
Добавление ID3-тэга : Нет
Утилита сжатия : C:\Program Files\Exact Audio Copy\Flac\flac.exe

TOC извлечённого CD

Трек | Старт | Длительность | Начальный сектор | Конечный сектор
---------------------------------------------------------------------
1 | 0:00.00 | 3:59.45 | 0 | 17969
2 | 3:59.45 | 1:25.67 | 17970 | 24411
3 | 5:25.37 | 3:55.20 | 24412 | 42056
4 | 9:20.57 | 1:25.45 | 42057 | 48476
5 | 10:46.27 | 2:44.15 | 48477 | 60791
6 | 13:30.42 | 1:32.63 | 60792 | 67754
7 | 15:03.30 | 4:40.15 | 67755 | 88769
8 | 19:43.45 | 4:53.00 | 88770 | 110744
9 | 24:36.45 | 2:55.35 | 110745 | 123904
10 | 27:32.05 | 3:27.07 | 123905 | 139436
11 | 30:59.12 | 2:18.30 | 139437 | 149816
12 | 33:17.42 | 3:40.23 | 149817 | 166339
13 | 36:57.65 | 3:01.67 | 166340 | 179981
14 | 39:59.57 | 2:28.00 | 179982 | 191081
15 | 42:27.57 | 7:38.25 | 191082 | 225456
16 | 50:06.07 | 3:20.33 | 225457 | 240489
17 | 53:26.40 | 2:29.10 | 240490 | 251674
18 | 55:55.50 | 2:13.25 | 251675 | 261674
19 | 58:09.00 | 3:35.42 | 261675 | 277841
20 | 61:44.42 | 2:55.30 | 277842 | 290996
21 | 64:39.72 | 2:21.03 | 290997 | 301574

Характеристики диапазона извлечения и сообщения об ошибках

Выбранный диапазон

\Peter Gabriel - Passion.wav

Пиковый уровень 95.5 %
Качество диапазона 100.0 %
CRC копии A9C279E4
Копирование... OK

Ошибок не произошло

AccurateRip: сводка

Трек 1 точное извлечение (доверие 28) [D5E9ED20]
Трек 2 точное извлечение (доверие 29) [0FE25059]
Трек 3 точное извлечение (доверие 29) [8FFF8C03]
Трек 4 точное извлечение (доверие 29) [B5376A09]
Трек 5 точное извлечение (доверие 28) [F8E2AFE0]
Трек 6 точное извлечение (доверие 29) [73AC2F72]
Трек 7 точное извлечение (доверие 28) [B04977B7]
Трек 8 точное извлечение (доверие 29) [2DCD125E]
Трек 9 точное извлечение (доверие 28) [E564BDFB]
Трек 10 точное извлечение (доверие 29) [2DA9C1A4]
Трек 11 точное извлечение (доверие 28) [64521F41]
Трек 12 точное извлечение (доверие 29) [45209BA2]
Трек 13 точное извлечение (доверие 28) [A4913C3F]
Трек 14 точное извлечение (доверие 29) [5DBAE0A0]
Трек 15 точное извлечение (доверие 29) [760F1D9E]
Трек 16 точное извлечение (доверие 28) [D40001FA]
Трек 17 точное извлечение (доверие 28) [1446B3E2]
Трек 18 точное извлечение (доверие 28) [73FADD6F]
Трек 19 точное извлечение (доверие 29) [6256CCFC]
Трек 20 точное извлечение (доверие 28) [ECD9CCD1]
Трек 21 точное извлечение (доверие 27) [2AD105FC]

Все треки извлечены точно

Конец отчёта


Трекер:  [ 07-Июл-2011 23:29 ]

  

Скачать .torrent

Размер .torrent файла 13 KB


Размер: 322 MB
Хэш (hash) релиза: dd5d55b88f3126f01ff7ebc54e444b9b02204d7d

Еще никто не оставлял запись к записи скачать торрент "Passion" Peter Gabriel - to the Martin Scorsese film"The Last Temptation of Christ "- 1988, FLAC . Будь первым!

!Обратная связь