Скачать через торрент музыку Косяки бесплатно без регистрации torrent

Статистика раздачи
Размер:  297 MB   |    Зарегистрирован:  6 лет 9 месяцев   |    .torrent скачан:  56 раз   |   
Раздают:  1  
   
загрузка...
 
Автор Сообщение

Galfimbul

avatar Galfimbul


Косяки / Weeds

Жанр: Soundtrack
Год выпуска диска: 2006
Производитель диска: Label: Lions Gate Records
Аудио кодек: FLAC
Тип рипа: tracks+.cue
Битрейт аудио: lossless
Продолжительность: 00:50:17
Трэклист:
1. Elvis Costello - Little Boxes (0:57)
2. Zeroleen - All Good (3:06)
3. Of Montreal - Wraith Pinned To The Mist And Other Games (4:10)
4. Jenny Owen Youngs - Fuck, Was I (3:29)
5. Fern Jones - Strange Things Are Happening (2:30)
6. The Real Tuesday Weld - Bathtime in Clerkenwell (2:57)
7. Gwendolyn Sanford & Brandon Young Jay - Shane Digs Gretchen (0:54)
8. Rogue Wave - Kicking the Heart Out (4:17)
9. Regina Spektor - The Ghost of Corporate Future (3:21)
10. Dengue Fever - One Thousand Tears of a Tarantula (6:42)
11. Aidan Hawken - Neighborhood (5:18)
12. Squirrel Nut Zippers - It Ain't You (3:10)
13. Gwendolyn Sanford & Brandon Young Jay - From Agrestic to Las Vegas (0:46)
14. The 88 - Not Enough (4:48)
15. Sufjan Stevens - Holland (3:31)
16. Gwendolyn Sanford & Brandon Young Jay - Huskaroo TV Spot (0:21)
 
Exact Audio Copy V0.99 prebeta 4 from 23. January 2008

EAC extraction logfile from 5. January 2009, 5:03

Various / Weeds: Music from the Showtime Original Series, Volume 2

Used drive : TSSTcorpDVD+-RW TS-H653B Adapter: 0 ID: 0

Read mode : SecureUtilize accurate stream : YesDefeat audio cache : YesMake use of C2 pointers : No

Read offset correction : 6Overread into Lead-In and Lead-Out : NoFill up missing offset samples with silence : YesDelete leading and trailing silent blocks : NoNull samples used in CRC calculations : YesUsed interface : Native Win32 interface for Win NT & 2000Gap handling : Appended to previous track

Used output format : User Defined EncoderSelected bitrate : 192 kBit/sQuality : HighAdd ID3 tag : NoCommand line compressor : C:\Program Files\Exact Audio Copy\Flac\flac.exeAdditional command line options : -8 -A tukey(0.25) -A gauss(0.1875) -b 4096 -V -T "artist=%a" -T "title=%t" -T "album=%g" -T "date=%y" -T "tracknumber=%n" -T "genre=%m" %s

TOC of the extracted CD

Track | Start | Length | Start sector | End sector --------------------------------------------------------- 1 | 0:00.00 | 0:53.66 | 0 | 4040 2 | 0:53.66 | 3:02.42 | 4041 | 17732 3 | 3:56.33 | 4:06.43 | 17733 | 36225 4 | 8:03.01 | 3:25.23 | 36226 | 51623 5 | 11:28.24 | 2:26.03 | 51624 | 62576 6 | 13:54.27 | 2:53.03 | 62577 | 75554 7 | 16:47.30 | 0:50.20 | 75555 | 79324 8 | 17:37.50 | 4:13.71 | 79325 | 98370 9 | 21:51.46 | 3:17.12 | 98371 | 113157 10 | 25:08.58 | 6:38.37 | 113158 | 143044 11 | 31:47.20 | 5:14.65 | 143045 | 166659 12 | 37:02.10 | 3:06.40 | 166660 | 180649 13 | 40:08.50 | 0:42.39 | 180650 | 183838 14 | 40:51.14 | 4:44.16 | 183839 | 205154 15 | 45:35.30 | 3:27.52 | 205155 | 220731 16 | 49:03.07 | 0:21.57 | 220732 | 222363

Track 1

Filename C:\Documents and Settings\Administrator\Desktop\!Music\Various Artists - Weeds - Music from the Showtime Original Series, Volume 2 FLAC\01 - Elvis Costello - Little Boxes.wav

Pre-gap length 0:00:02.00

Peak level 98.8 % Track quality 100.0 % Test CRC BDD9AC5E Copy CRC BDD9AC5E Accurately ripped (confidence 6) [0E5EA534] Copy OK

Track 2

Filename C:\Documents and Settings\Administrator\Desktop\!Music\Various Artists - Weeds - Music from the Showtime Original Series, Volume 2 FLAC\02 - Zeroleen - All Good.wav

Peak level 98.8 % Track quality 100.0 % Test CRC E717BF06 Copy CRC E717BF06 Accurately ripped (confidence 7) [EF2BA853] Copy OK

Track 3

Filename C:\Documents and Settings\Administrator\Desktop\!Music\Various Artists - Weeds - Music from the Showtime Original Series, Volume 2 FLAC\03 - Of Montreal - Wraith Pinned To The Mist And Other Games.wav

Peak level 98.8 % Track quality 100.0 % Test CRC E49E3812 Copy CRC E49E3812 Accurately ripped (confidence 6) [59577D0B] Copy OK

Track 4

Filename C:\Documents and Settings\Administrator\Desktop\!Music\Various Artists - Weeds - Music from the Showtime Original Series, Volume 2 FLAC\04 - Jenny Owen Youngs - Fuck, Was I.wav

Peak level 98.7 % Track quality 100.0 % Test CRC 3F837626 Copy CRC 3F837626 Accurately ripped (confidence 6) [52F0FB13] Copy OK

Track 5

Filename C:\Documents and Settings\Administrator\Desktop\!Music\Various Artists - Weeds - Music from the Showtime Original Series, Volume 2 FLAC\05 - Fern Jones - Strange Things Are Happening.wav

Pre-gap length 0:00:00.53

Peak level 98.8 % Track quality 100.0 % Test CRC FB77EE0E Copy CRC FB77EE0E Accurately ripped (confidence 6) [0EF57E2C] Copy OK

Track 6

Filename C:\Documents and Settings\Administrator\Desktop\!Music\Various Artists - Weeds - Music from the Showtime Original Series, Volume 2 FLAC\06 - (The Real) Tuesday Weld - Bathtime In Clerkenwell.wav

Pre-gap length 0:00:00.04

Peak level 98.8 % Track quality 100.0 % Test CRC DF8A0581 Copy CRC DF8A0581 Accurately ripped (confidence 6) [9A474495] Copy OK

Track 7

Filename C:\Documents and Settings\Administrator\Desktop\!Music\Various Artists - Weeds - Music from the Showtime Original Series, Volume 2 FLAC\07 - Gwendolyn Sanford & Brandon Young Jay - Shane Digs Gretchen.wav

Pre-gap length 0:00:00.25

Peak level 90.3 % Track quality 100.0 % Test CRC 13D5667F Copy CRC 13D5667F Accurately ripped (confidence 6) [DC7443B9] Copy OK

Track 8

Filename C:\Documents and Settings\Administrator\Desktop\!Music\Various Artists - Weeds - Music from the Showtime Original Series, Volume 2 FLAC\08 - Rogue Wave - Kicking The Heart Out.wav

Peak level 98.8 % Track quality 100.0 % Test CRC 4F8645BB Copy CRC 4F8645BB Accurately ripped (confidence 6) [489043B8] Copy OK

Track 9

Filename C:\Documents and Settings\Administrator\Desktop\!Music\Various Artists - Weeds - Music from the Showtime Original Series, Volume 2 FLAC\09 - Regina Spektor - The Ghost of Corporate Future.wav

Peak level 87.5 % Track quality 100.0 % Test CRC B6C9BB4F Copy CRC B6C9BB4F Accurately ripped (confidence 7) [0CA69581] Copy OK

Track 10

Filename C:\Documents and Settings\Administrator\Desktop\!Music\Various Artists - Weeds - Music from the Showtime Original Series, Volume 2 FLAC\10 - Dengus Fever - One Thousand Tears Of A Tarantula.wav

Pre-gap length 0:00:00.25

Peak level 98.8 % Track quality 100.0 % Test CRC EA3E2E61 Copy CRC EA3E2E61 Accurately ripped (confidence 6) [E5484178] Copy OK

Track 11

Filename C:\Documents and Settings\Administrator\Desktop\!Music\Various Artists - Weeds - Music from the Showtime Original Series, Volume 2 FLAC\11 - Aidan Hawken - Neighborhood.wav

Peak level 98.8 % Track quality 100.0 % Test CRC FB88566F Copy CRC FB88566F Accurately ripped (confidence 6) [ABD3E136] Copy OK

Track 12

Filename C:\Documents and Settings\Administrator\Desktop\!Music\Various Artists - Weeds - Music from the Showtime Original Series, Volume 2 FLAC\12 - Squirrel Nut Zippers - It Ain't You.wav

Peak level 98.8 % Track quality 100.0 % Test CRC 5B08B595 Copy CRC 5B08B595 Accurately ripped (confidence 6) [29EE21AA] Copy OK

Track 13

Filename C:\Documents and Settings\Administrator\Desktop\!Music\Various Artists - Weeds - Music from the Showtime Original Series, Volume 2 FLAC\13 - Gwendolyn Sanford & Brandon Young Jay - From Agrestic To Las Vegas.wav

Pre-gap length 0:00:00.17

Peak level 79.0 % Track quality 100.0 % Test CRC 34330F9C Copy CRC 34330F9C Accurately ripped (confidence 6) [49860050] Copy OK

Track 14

Filename C:\Documents and Settings\Administrator\Desktop\!Music\Various Artists - Weeds - Music from the Showtime Original Series, Volume 2 FLAC\14 - The 88 - Not Enough.wav

Peak level 91.4 % Track quality 100.0 % Test CRC 089E9CEB Copy CRC 089E9CEB Accurately ripped (confidence 6) [0D43BBCE] Copy OK

Track 15

Filename C:\Documents and Settings\Administrator\Desktop\!Music\Various Artists - Weeds - Music from the Showtime Original Series, Volume 2 FLAC\15 - Sufjan Stevens - Holland.wav

Peak level 98.8 % Track quality 100.0 % Test CRC C26D2263 Copy CRC C26D2263 Accurately ripped (confidence 6) [08F685ED] Copy OK

Track 16

Filename C:\Documents and Settings\Administrator\Desktop\!Music\Various Artists - Weeds - Music from the Showtime Original Series, Volume 2 FLAC\16 - Gwendolyn Sanford & Brandon Young Jay - Huskaroo TV Spot.wav

Pre-gap length 0:00:01.46

Peak level 93.7 % Track quality 100.0 % Test CRC 881B48DE Copy CRC 881B48DE Accurately ripped (confidence 6) [566183E3] Copy OK

All tracks accurately ripped

No errors occurred

End of status report


Трекер:  [ 07-Июл-2011 23:28 ]

  

Скачать .torrent

Размер .torrent файла 13 KB


Размер: 297 MB
Хэш (hash) релиза: fa430e4434fdbad31ff17157cd93196b9950bf89

Еще никто не оставлял запись к записи скачать торрент Косяки . Будь первым!

!Обратная связь