Скачать через торрент музыку Медиатор судьбы Tenacious D In The Pick Of Destiny - 2006, APE бесплатно без регистрации torrent

Статистика раздачи
Размер:  224 MB   |    Зарегистрирован:  7 лет 1 месяц   |    .torrent скачан:  53 раза   |   
Раздают:  1  
   
загрузка...
 
Автор Сообщение

Galfimbul

avatar Galfimbul


Медиатор судьбы / Tenacious D In The Pick Of Destiny

Жанр: Soundtrack
Год выпуска диска: 2006
Аудио кодек: APE
Тип рипа: image + .cue
Битрейт аудио: lossless
Продолжительность: 33 минуты 40 секунд

Трэклист:
1. Kickapoo (4:14)
2. Classico (0:59)
3. Baby (1:36)
4. Destiny (0:37)
5. History (1:42)
6. The Government Totally Sucks (1:35)
7. Master Exploder (2:25)
8. The Divide (0:22)
9. Papagenu (He's My Sassafrass) (2:24)
10. Dude (I Totally Miss You) (2:54)
11. Break In-City (Storm The Gate!) (1:22)
12. Car Chase City (2:42)
13. Beelzeboss (The Final Showdown) (5:36)
14. POD (2:32)
15. The Metal (2:45)

Лог. файл:
Exact Audio Copy V0.99 prebeta 4 from 23. January 2008

Отчёт EAC об извлечении, выполненном 4. июля 2008, 4:49

Tenacious D / The Pick Of Destiny

Дисковод: Optiarc DVD RW AD-5170A Adapter: 2 ID: 0

Режим чтения : Достоверность
Использование точного потока : Да
Отключение кэша аудио : Да
Использование указателей C2 : Нет

Коррекция смещения при чтении : 48
Способность читать области Lead-in и Lead-out : Нет
Заполнение пропущенных сэмплов тишиной : Да
Удаление блоков с тишиной в начале и конце : Нет
При вычислениях CRC использовались нулевые сэмплы : Да
Интерфейс : Установленный внешний ASPI-интерфейс

Выходной формат : Monkey's Audio (без потерь)
Выбранный битрейт : Fast Lossless Compression
Качество : Высокий
Добавление ID3-тэга : Да
Утилита сжатия : C:\Program Files\Monkey's Audio\MAC.exe
Дополнительные параметры : -6 -V -T "ARTIST=%a" -T "TITLE=%t" -T "ALBUM=%g" -T "DATE=%y" -T "TRACKNUMBER=%n" -T "GENRE=%m" -T "COMMENT=%e" %s -o %d

TOC извлечённого CD

Трек | Старт | Длительность | Начальный сектор | Конечный сектор
---------------------------------------------------------------------
1 | 0:00.00 | 4:14.26 | 0 | 19075
2 | 4:14.26 | 0:58.38 | 19076 | 23463
3 | 5:12.64 | 1:36.15 | 23464 | 30678
4 | 6:49.04 | 0:37.05 | 30679 | 33458
5 | 7:26.09 | 1:42.18 | 33459 | 41126
6 | 9:08.27 | 1:34.40 | 41127 | 48216
7 | 10:42.67 | 2:24.60 | 48217 | 59076
8 | 13:07.52 | 0:22.27 | 59077 | 60753
9 | 13:30.04 | 2:24.12 | 60754 | 71565
10 | 15:54.16 | 2:53.48 | 71566 | 84588
11 | 18:47.64 | 1:22.12 | 84589 | 90750
12 | 20:10.01 | 2:42.23 | 90751 | 102923
13 | 22:52.24 | 5:35.60 | 102924 | 128108
14 | 28:28.09 | 2:32.26 | 128109 | 139534
15 | 31:00.35 | 2:45.72 | 139535 | 151981

Характеристики диапазона извлечения и сообщения об ошибках

Выбранный диапазон

Имя файла C:\Users\dannyboy\Desktop\Tenacious D - The Pick Of Destiny.wav

Пиковый уровень 99.7 %
Качество диапазона 100.0 %
CRC теста 72DE5ECC
CRC копии 72DE5ECC
Копирование... OK

Ошибок не произошло

AccurateRip: сводка

Трек 1 точное извлечение (доверие 44) [C51880C6]
Трек 2 точное извлечение (доверие 43) [0B9DF736]
Трек 3 точное извлечение (доверие 44) [10D27C98]
Трек 4 точное извлечение (доверие 44) [118F5200]
Трек 5 точное извлечение (доверие 44) [CA851397]
Трек 6 точное извлечение (доверие 44) [BD615665]
Трек 7 точное извлечение (доверие 44) [97310789]
Трек 8 точное извлечение (доверие 44) [BA8FDECC]
Трек 9 точное извлечение (доверие 44) [BA8D579E]
Трек 10 точное извлечение (доверие 44) [18A2358D]
Трек 11 точное извлечение (доверие 44) [54617830]
Трек 12 точное извлечение (доверие 43) [94DB2B7A]
Трек 13 точное извлечение (доверие 41) [0E189B01]
Трек 14 точное извлечение (доверие 42) [36CFFC56]
Трек 15 точное извлечение (доверие 40) [5EA15B99]

Все треки извлечены точно

Конец отчёта


Трекер:  [ 07-Июл-2011 23:28 ]

  

Скачать .torrent

Размер .torrent файла 18 KB


Размер: 224 MB
Хэш (hash) релиза: 335c4e7389260d68c6551f254ffb9dbc4870ebfe

Еще никто не оставлял запись к записи скачать торрент Медиатор судьбы Tenacious D In The Pick Of Destiny - 2006, APE . Будь первым!

!Обратная связь